<?xml version="1.0" standalone="no"?>
<!DOCTYPE svg PUBLIC "-//W3C//DTD SVG 1.1//EN" "http://www.w3.org/Graphics/SVG/1.1/DTD/svg11.dtd" >
<svg xmlns="http://www.w3.org/2000/svg" xmlns:xlink="http://www.w3.org/1999/xlink" version="1.1">
<metadata>
Created by FontForge 20190801 at Fri Jan  1 00:00:00 1904
 By www-data
</metadata>
<defs>
<font id="ARIALMT" horiz-adv-x="278" >
  <font-face 
    font-family="ARIALMT"
    font-weight="500"
    font-stretch="normal"
    units-per-em="1000"
    panose-1="0 0 0 0 0 0 0 0 0 0"
    ascent="800"
    descent="-200"
    x-height="518"
    cap-height="716"
    bbox="-222 -250 1006 922"
    underline-thickness="50"
    underline-position="-105"
    unicode-range="U+0020-F002"
  />
<missing-glyph 
 />
    <glyph glyph-name=".notdef" 
 />
    <glyph glyph-name="glyph1" horiz-adv-x="0" 
 />
    <glyph glyph-name="glyph2" 
 />
    <glyph glyph-name="space" unicode=" " 
 />
    <glyph glyph-name="space" unicode="&#xa0;" 
 />
    <glyph glyph-name="exclam" unicode="!" 
d="M89 0v100h100v-100h-100v0v0zM112 178l-27 379v159h109v-159l-25 -379h-57v0v0z" />
    <glyph glyph-name="quotedbl" unicode="&#x22;" horiz-adv-x="355" 
d="M70 462l-19 137v117h80v-117l-17 -137h-44v0v0zM242 462l-19 137v117h80v-117l-17 -137h-44v0v0z" />
    <glyph glyph-name="numbersign" unicode="#" horiz-adv-x="556" 
d="M51 -12l43 208h-83v72h97l37 178h-134v72h148l43 210h73l-42 -210h153l43 210h73l-42 -210h85v-72h-100l-36 -178h136v-72h-151l-42 -208h-74l43 208h-154l-42 -208h-74v0v0zM218 446l-36 -178h153l37 178h-154v0v0z" />
    <glyph glyph-name="dollar" unicode="$" horiz-adv-x="556" 
d="M251 -103v88q-8 1 -18.5 3t-24.5 4q-13 3 -27 6.5t-28 9.5q-20 10 -39 25.5t-36 37.5q-17 21 -27 52.5t-13 73.5l88 18q0 -7 1.5 -14.5t3.5 -18.5q2 -10 6 -21.5t9 -22.5q6 -14 15.5 -27.5t21.5 -25.5t29 -19t39 -9v281q-10 1 -21.5 4t-24.5 7q-13 5 -28.5 11.5
t-32.5 15.5q-16 8 -28.5 17.5t-21.5 21.5q-9 11 -15.5 23t-11.5 25q-4 10 -6.5 19.5t-4.5 19.5q-1 10 -2 19t-1 17q0 35 8.5 63.5t24.5 51.5q17 23 36 39t41 25q13 5 25 9t24 6q11 2 21 3.5t18 2.5v44h52v-42q36 -5 67.5 -17.5t57.5 -32.5q26 -21 42.5 -53t23.5 -76l-91 -11
q-3 19 -8.5 35t-13.5 28q-7 11 -15.5 19.5t-16.5 14.5q-7 4 -13.5 7t-12.5 4q-6 2 -11 3.5t-9 2.5v-253q7 -3 14 -5l14 -4q8 -2 15.5 -4.5t14.5 -4.5q29 -9 54.5 -24t48.5 -36t35 -54t12 -78v-1.5v-0.5v0v0v-1v0q-1 -39 -14.5 -75t-39.5 -69t-64.5 -49.5t-89.5 -18.5v-89
h-52v0v0zM303 327v-268q5 -1 9.5 0t9.5 2q5 2 10.5 3.5t10.5 4.5q14 7 27.5 18t25.5 26t18.5 35.5t6.5 46.5q0 32 -9 54t-26 35q-18 12 -38.5 22.5t-44.5 18.5v2v0zM251 423v244q-26 -6 -45.5 -16t-32.5 -25t-21 -31.5t-10 -33.5v-2v-2q-1 -1 -1 -2v-2v-4v-4v-11.5t1 -10.5
q0 -3 1 -6t1 -5l2 -6l2 -6q5 -11 12.5 -21.5t19.5 -21.5q11 -10 29 -19t42 -17v2v0z" />
    <glyph glyph-name="percent" unicode="%" horiz-adv-x="889" 
d="M514 168v4v6v3.5t1 2.5v3.5v3.5q2 29 12 56.5t28 52.5q17 25 44.5 37.5t64.5 12.5q6 0 12 -0.5t12 -1.5t12.5 -2.5t13.5 -3.5q20 -7 38 -20.5t34 -34.5q17 -21 25 -52.5t8 -74.5q0 -42 -8 -73t-25 -52q-16 -21 -34 -33.5t-38 -19.5l-6 -2l-6 -2q-4 -1 -7 -1.5t-6 -1.5
q-7 -1 -13 -1.5t-11 -0.5q-7 0 -14 0.5t-15 2.5q-8 1 -16.5 4t-17.5 7q-16 7 -31.5 20t-29.5 34q-13 20 -20 51.5t-7 73.5v2v0zM666 292q-18 -2 -30.5 -8t-20.5 -17q-7 -12 -12.5 -24t-8.5 -26q-1 -9 -2.5 -17.5t-1.5 -16.5v-14.5v-11.5v-10.5v-14.5t1.5 -17t4.5 -18
q3 -12 8.5 -23t12.5 -22q8 -10 20.5 -15t28.5 -5q18 0 31 5.5t20 16.5q8 11 13.5 24t8.5 27q2 8 2.5 16.5t0.5 16.5v7.5t1 6.5v6v6v4.5v5.5q-1 3 -1 7v8q0 8 -1.5 17t-3.5 18q-3 12 -8.5 23.5t-13.5 21.5q-8 11 -20 16t-29 5v2v0zM214 -25l391 753h71l-389 -753h-73v0v0z
M73 543v4v6v3.5t1 2.5v3.5v3.5q2 29 12 56.5t28 52.5q17 25 44.5 37.5t64.5 12.5q6 0 12 -0.5t12 -1.5t12.5 -2.5t13.5 -3.5q20 -7 38 -20.5t34 -34.5q17 -21 25 -52.5t8 -74.5q0 -42 -8 -73t-25 -52q-16 -21 -34 -35t-38 -20q-3 -1 -6 -2.5t-6 -2.5q-4 0 -7 -1t-6 -1
q-7 -1 -13 -1.5t-11 -0.5q-7 0 -14 1t-15 2q-8 2 -16.5 4.5t-17.5 6.5q-16 8 -31.5 21.5t-29.5 34.5q-13 20 -20 51.5t-7 73.5v2v0zM225 667q-18 -2 -30.5 -8t-20.5 -17q-7 -12 -12.5 -24t-8.5 -26q-1 -9 -2.5 -17.5t-1.5 -16.5v-14.5v-11.5v-10.5v-14.5t1.5 -17t4.5 -18
q3 -12 8.5 -23t12.5 -22q8 -10 20.5 -15t28.5 -5q18 0 31 5.5t20 16.5q8 11 13.5 24t8.5 27q2 8 2.5 16.5t0.5 16.5v7.5t1 6.5v6v6v4.5v5.5q-1 3 -1 7v8q0 8 -1.5 17t-3.5 18q-3 12 -8.5 23.5t-13.5 21.5q-8 11 -20 16t-29 5v2v0z" />
    <glyph glyph-name="ampersand" unicode="&#x26;" horiz-adv-x="667" 
d="M342 401l129 -164q0 -1 0.5 0t1.5 2v0.5t1 1.5v0.5v0.5q7 15 12 30t9 28q4 14 6.5 22.5t3.5 12.5l91 -17q-6 -25 -12.5 -46.5t-14.5 -40.5q-7 -19 -16.5 -36t-20.5 -34q11 -14 22.5 -27.5t24.5 -26.5q12 -13 24.5 -24t25.5 -21q1 -1 2 -1.5t2 -1.5q0 -1 1 -1.5t2 -1.5
t2 -1.5t2 -0.5q1 -1 2 -1.5t2 -1.5l-59 -68l-6 4l-6 4q-3 3 -6 5l-6 4q-6 3 -11.5 7.5t-10.5 8.5q-12 11 -22 20.5t-18 18.5q-9 9 -15 16t-9 11q-21 -24 -44 -41.5t-49 -29.5q-25 -11 -53 -17t-59 -6q-48 0 -85.5 11.5t-64.5 36.5q-27 24 -44.5 51.5t-25.5 57.5l-2 6t-2 7
q0 3 -1 6t-1 6t-0.5 6t-0.5 7v6v6q0 30 9.5 58.5t28.5 55.5t52 52t80 48q-21 24 -36 45t-24 37q-9 17 -13.5 32.5t-6.5 30.5v3.5v2.5v3.5v2.5q0 32 12 59.5t37 51.5t57 36.5t72 12.5q38 0 68 -11.5t52 -34.5q23 -22 34.5 -49t11.5 -58q0 -25 -8 -48t-24 -45t-42 -42t-61 -39
v2v0zM420 154l-161 200q-23 -16 -44 -32t-40 -34t-28 -39.5t-9 -47.5q0 -6 1 -12t2 -14q1 -4 2 -7.5t2 -6.5q1 -4 2.5 -7.5t3.5 -7.5q6 -15 16.5 -29t25.5 -27t34.5 -19.5t43.5 -6.5h1.5h1.5h0.5h1.5h3.5t2.5 1q20 2 39.5 8.5t38.5 19.5t34 28t26 31v2v0zM258 503l39 -46
q0 -1 0.5 -1h1.5t2 0.5t2 1.5q15 9 29.5 20t27.5 23q14 12 20.5 30t6.5 40q0 20 -6 34.5t-17 24.5q-12 11 -24 17t-26 7h-2h-2h-2h-2h-2.5h-3.5h-1.5h-1.5q-1 -1 -1.5 -1h-1.5q-13 -2 -25.5 -8t-23.5 -16t-16.5 -23.5t-5.5 -30.5q0 -7 1.5 -15t4.5 -16q3 -9 10.5 -19.5
t18.5 -23.5v2v0z" />
    <glyph glyph-name="quotesingle" unicode="'" horiz-adv-x="191" 
d="M74 462l-19 137v117h80v-117l-17 -137h-44v0v0z" />
    <glyph glyph-name="parenleft" unicode="(" horiz-adv-x="333" 
d="M234 728h63l-6 -10q-2 -5 -4 -9l-4 -8q-3 -4 -5 -8l-4 -8t-4.5 -8t-4.5 -7q-2 -4 -4.5 -8t-4.5 -8q-19 -36 -37 -78t-35 -90q-16 -48 -24.5 -105t-8.5 -123q0 -54 8.5 -110t24.5 -115q17 -57 45 -118t68 -125h-63q-6 7 -15 19t-20 29q-11 16 -23 35t-24 42
q-17 33 -33 70.5t-30 80.5q-15 44 -22 91.5t-7 99.5q0 38 4 74.5t11 70.5q8 34 19.5 67.5t26.5 67.5q6 14 13 27.5t14 26.5q8 14 15.5 27.5t16.5 27.5q10 16 18 28.5t15 22.5q7 9 12 16.5t9 12.5v2v0z" />
    <glyph glyph-name="parenright" unicode=")" horiz-adv-x="333" 
d="M99 -210h-63l6 10q4 7 8 13.5t8 13.5q2 4 4 7.5t4 6.5q2 4 4.5 7.5t4.5 7.5q20 37 38.5 79.5t34.5 88.5q17 48 25.5 106.5t8.5 125.5q0 53 -8 109.5t-25 115.5q-16 59 -44.5 120t-68.5 125l63 2q6 -9 14.5 -21t19.5 -29q11 -16 23 -35t25 -42q17 -33 32.5 -71t30.5 -82
q14 -44 21.5 -92t7.5 -99q0 -39 -4 -75t-12 -70q-7 -34 -18.5 -67.5t-26.5 -65.5q-6 -14 -12.5 -27.5t-14.5 -26.5q-7 -14 -15.5 -27.5t-16.5 -27.5q-10 -16 -18 -28.5t-15 -22.5q-7 -9 -12 -16.5t-9 -12.5v0v0z" />
    <glyph glyph-name="asterisk" unicode="*" horiz-adv-x="389" 
d="M33 584l23 70q5 -4 12.5 -7t16.5 -6q9 -4 19 -7.5t20 -7.5q3 -1 6 -2.5t6 -2.5q2 -2 5 -3t6 -3q3 -1 6 -2.5l5 -2.5q3 -2 5.5 -3t5.5 -3q-3 20 -4.5 36t-2.5 26q-1 11 -2 21t-1 19v4.5v5.5v4.5v5.5l70 2q0 -11 -0.5 -21.5t-1.5 -22.5t-2.5 -29t-4.5 -39v0v-1
q-1 0 -1 -0.5v-0.5v-2v-2q-1 -1 -1 -1.5v-1.5v-1.5v-0.5q5 2 10 4.5t10 5.5q5 2 10.5 4.5t11.5 4.5q11 5 20.5 8.5t19.5 7.5t18 7t15 5l23 -68q-1 -2 -2.5 -2.5t-2.5 -1.5l-3 -1.5t-3 -0.5q-1 0 -3 -0.5t-3 -0.5q-2 -1 -3.5 -1.5t-3.5 -0.5q-5 -1 -11 -2.5t-12 -3.5
q-3 -1 -6 -1.5t-6 -0.5q-3 -1 -6 -1.5t-6 -1.5q-7 -1 -13.5 -2.5t-12.5 -2.5q-7 -1 -13 -2l-12 -2l7.5 -7.5l9.5 -9.5t10 -10.5t11 -11.5q0 -1 0.5 -1.5t1.5 -0.5q0 -1 0.5 -1.5t1.5 -0.5q8 -9 14.5 -17t13.5 -16q6 -7 10 -11l5 -5l-59 -40q-4 4 -8.5 9.5t-7.5 10.5
q-4 5 -7.5 10.5t-6.5 10.5q-1 1 -1.5 2t-0.5 2q-1 0 -1.5 1t-0.5 2q-1 2 -2 3.5t-2 2.5q-4 5 -7.5 11t-6.5 12q-4 6 -7.5 12.5t-7.5 13.5q-7 -14 -14 -25.5t-12 -20.5t-9.5 -17t-9.5 -16q-1 -1 -1.5 -2t-1.5 -1q-1 -1 -1.5 -2t-0.5 -2l-1.5 -1.5t-0.5 -1.5l-1.5 -1.5
l-1.5 -1.5t-1.5 -2l-0.5 -1q-1 -1 -1.5 -2t-1.5 -2t-2 -2.5t-2 -3.5l-57 44l41 49q9 9 15 16t10 11t7.5 7t6.5 6v0v0v0v0v0v0v0l1 1v0v0l-10 2l-10 2l-10 2l-10 2q-10 2 -19.5 4t-19.5 5l-10 2t-10 3q-6 1 -11 2.5t-10 2.5v2v0z" />
    <glyph glyph-name="plus" unicode="+" horiz-adv-x="584" 
d="M251 116v196h-196v82h196v196h82v-196h196v-82h-196v-196h-82v0v0z" />
    <glyph glyph-name="comma" unicode="," 
d="M90 0v100h100v-100q0 -6 -0.5 -14t-1.5 -18q-1 -9 -3 -19t-6 -20t-10 -19.5t-14 -18.5q-9 -9 -20.5 -17t-26.5 -15l-24 37q17 8 28.5 19t15.5 25q5 14 7.5 29t3.5 31h-49v0v0z" />
    <glyph glyph-name="hyphen" unicode="-" horiz-adv-x="333" 
d="M32 215v88h269v-88h-269v0v0z" />
    <glyph glyph-name="period" unicode="." 
d="M89 0v100h100v-100h-100v0v0z" />
    <glyph glyph-name="slash" unicode="/" 
d="M0 -24l207 740h71l-207 -740h-71v0v0z" />
    <glyph glyph-name="zero" unicode="0" horiz-adv-x="556" 
d="M45 353q0 10 0.5 28t1.5 42t5 49.5t11 52.5q9 36 25.5 69t40.5 63t61 45t88 15q50 0 87.5 -15.5t61.5 -45.5t41 -63t26 -69q6 -26 10 -51t5 -49t1.5 -42.5t0.5 -30.5t-0.5 -30t-1.5 -42t-5 -49.5t-11 -51.5q-9 -36 -25.5 -69t-40.5 -63t-61.5 -44t-87.5 -14
q-52 0 -89.5 14.5t-61.5 44.5t-40.5 63.5t-25.5 70.5q-6 25 -9.5 49t-4.5 48q-1 23 -1.5 41.5t-0.5 31.5v2v0zM135 353v-23.5v-23.5q0 -6 0.5 -12t0.5 -11q1 -6 1.5 -12t1.5 -12q3 -37 11.5 -71.5t23.5 -66.5q14 -31 40.5 -47t63.5 -16q38 0 64 16t41 48q14 32 23 68t12 75
q1 11 1.5 22t0.5 22v10.5t1 10.5v10.5v10.5v9.5v9.5q-1 5 -1 10v10q0 11 -0.5 21.5t-1.5 20.5q-3 40 -11.5 76.5t-22.5 69.5q-15 33 -41.5 50t-65.5 17q-43 0 -71 -21t-42 -63q-13 -42 -20.5 -88t-8.5 -96v-3v-3v-3.5v-3.5v-3v-3v-3.5v-3.5v2v0z" />
    <glyph glyph-name="one" unicode="1" horiz-adv-x="556" 
d="M375 0h-88v560q-7 -9 -15.5 -16.5t-17.5 -13.5q-4 -3 -9 -6.5t-9 -6.5q-5 -3 -9.5 -6t-9.5 -6q-16 -10 -31.5 -18.5t-30.5 -15.5t-25.5 -11.5t-18.5 -7.5v87q1 -1 2 -1t2 1l1 0.5t2 0.5t2 0.5t2 1.5l1 0.5t2 1.5q30 15 58.5 34t55.5 41q27 23 46.5 47.5t32.5 50.5l57 2
v-719v0v0z" />
    <glyph glyph-name="two" unicode="2" horiz-adv-x="556" 
d="M505 85v-85h-474v0v0v0v1v0v0v0.5v1.5q0 32 10.5 61.5t31.5 57.5t45 53.5t50 47.5q8 8 16 14.5t16 13.5l8 6t8 7q3 3 7 6l8 6q13 11 25 20.5t22 18.5q11 9 20.5 18t18.5 18l4.5 4.5l5.5 5.5l4.5 4.5t4.5 5.5t4.5 5.5l5.5 5.5l4.5 4.5t4.5 5.5q19 21 31 39t17 34t7.5 29.5
t2.5 25.5q0 27 -9.5 49t-28.5 40t-43.5 27t-53.5 9q-3 0 -9 -0.5t-17 -1.5q-10 -1 -21 -4.5t-22 -9.5q-13 -7 -25.5 -17.5t-23.5 -25.5t-16.5 -36t-5.5 -50l-90 12l2.5 15t2.5 19q2 11 5.5 22.5t8.5 23.5q9 22 21.5 39t27.5 30t31 22.5t32 15.5q14 5 27.5 9t26.5 5
q14 2 25.5 3t21.5 1q50 0 88.5 -12t63.5 -36q26 -24 42 -49.5t23 -54.5q2 -6 2.5 -12t1.5 -12t1.5 -12t0.5 -11q0 -26 -8 -54.5t-25 -58.5q-16 -31 -51.5 -69t-90.5 -85q-2 -1 -5.5 -4t-8.5 -8q-3 -2 -5.5 -4.5t-5.5 -4.5q-2 -3 -5 -5.5t-6 -4.5q-6 -5 -11.5 -9.5
t-10.5 -9.5q-5 -4 -8.5 -6.5t-5.5 -4.5q-30 -24 -49 -41.5t-28 -28.5q-9 -12 -15 -21t-11 -16l352 2v0v0z" />
    <glyph glyph-name="three" unicode="3" horiz-adv-x="556" 
d="M44 189l88 12q1 -7 2.5 -14.5t3.5 -16.5t6 -18l8 -18q7 -14 17.5 -27t24.5 -25t33.5 -18t44.5 -6q31 0 57 10.5t47 32.5q21 21 32 48t11 58q0 29 -9.5 54t-29.5 45q-19 20 -44 30t-57 10q-8 0 -15.5 -0.5t-13.5 -1.5q-3 -1 -6.5 -1.5t-6.5 -0.5q-3 -1 -5.5 -1.5
t-5.5 -1.5h-1.5h-0.5q-1 -1 -1.5 -1h-1.5h-1.5h-0.5q-1 -1 -1.5 -1h-0.5l10 79q1 -2 2 -2h2h2h2q1 -1 2 -1h2h2h2h12t13 1q6 1 13 2.5t14 3.5q17 5 33 14t30 22q14 14 21.5 33t7.5 44q0 26 -8 46.5t-25 33.5q-16 14 -33.5 22t-37.5 9h-2t-1 1h-2h-2h-2.5h-3.5
q-30 0 -53 -9.5t-38 -29.5q-15 -19 -24.5 -42t-13.5 -49l-88 18q7 38 20.5 67.5t32.5 48.5q20 20 41 34t43 21q5 2 10 3t11 3l10 2l10 2q10 2 19 2.5t18 0.5q45 0 82.5 -13.5t67.5 -40.5q29 -27 44 -60t15 -72q0 -7 -1 -15.5t-3 -18.5q-1 -10 -5 -19.5t-9 -19.5t-12.5 -20
t-17.5 -19t-22.5 -17t-27.5 -15v0l13.5 -4.5t14.5 -5.5q8 -3 16 -7t17 -9q4 -3 8 -6.5t8 -7.5t8 -7.5t8 -8.5q7 -9 13 -19t11 -22l4 -12l4 -12q2 -7 3.5 -13t2.5 -12q1 -4 1.5 -8t0.5 -8v-4t1 -4v-4v-4q0 -52 -18.5 -93.5t-56.5 -70.5q-37 -29 -78.5 -43t-87.5 -14
q-54 0 -95 14.5t-69 45.5t-43.5 65t-20.5 71v0v1v0v0v0.5v1.5v2v0z" />
    <glyph glyph-name="four" unicode="4" horiz-adv-x="556" 
d="M325 0v171h-310v81l326 464h72v-464h97v-81h-97v-171h-88v0v0zM101 252h224v323h-2l-222 -323v0v0z" />
    <glyph glyph-name="five" unicode="5" horiz-adv-x="556" 
d="M42 188l92 7q4 -27 11 -47t17 -34q10 -13 20.5 -23.5t22.5 -16.5q10 -6 19.5 -9t18.5 -5q9 -1 16.5 -1.5t12.5 -0.5q35 0 63 13t47 40q20 26 30 57t10 65q0 41 -11 71t-34 50q-22 20 -49 30.5t-58 10.5q-22 0 -42 -5t-37 -15q-16 -10 -29 -22.5t-22 -26.5l-83 12l70 368
h355v-85h-285l-39 -191q14 8 30 16t34 14q17 6 35 9.5t37 3.5h4.5h5.5q2 -1 4.5 -1h5.5q5 -1 10 -1.5t11 -1.5q34 -6 65 -23t59 -46q29 -28 43 -68t14 -91q0 -48 -15.5 -92t-47.5 -83q-31 -40 -76.5 -59t-104.5 -19h-8.5t-8.5 1q-5 0 -9 0.5t-9 0.5q-4 1 -9 1.5t-9 1.5
q-5 1 -9.5 2t-9.5 2q-28 6 -53.5 20.5t-49.5 36.5t-37.5 55t-17.5 77v2v0z" />
    <glyph glyph-name="six" unicode="6" horiz-adv-x="556" 
d="M502 541l-88 -8q-1 2 -2.5 7.5t-3.5 12.5q-2 8 -5 15.5t-7 15.5q-6 11 -15 21.5t-21 20.5q-12 9 -29 14t-38 5q-26 0 -48.5 -9.5t-42.5 -28.5q-19 -19 -34 -45t-24 -58l-2 -6t-1 -6q0 -1 -0.5 -2.5t-0.5 -2.5l-1.5 -3t-0.5 -3q-3 -13 -4.5 -26.5t-2.5 -27.5
q-1 -13 -1.5 -28t-0.5 -32l2 2q14 22 32.5 39t40.5 29t46.5 18.5t52.5 6.5q42 0 79.5 -15.5t68.5 -47.5q32 -31 47.5 -73t15.5 -95v-2v-1v-2v-2v-2v-1v-2v-2q-2 -43 -17 -83t-43 -76t-69 -53t-95 -17q-38 0 -71 8.5t-60 27.5t-47 41.5t-32 48.5q-9 19 -16 41.5t-12 47.5
q-5 26 -7.5 58t-2.5 72q0 14 0.5 33t1.5 43q2 24 6 49.5t11 52.5q10 38 28 73.5t45 67.5q26 32 67.5 48.5t96.5 16.5h5.5h5.5q2 -1 5 -1h6q6 -1 12 -1.5t12 -1.5q26 -5 51 -17.5t49 -32.5q23 -19 37.5 -50.5t20.5 -73.5v2v0zM143 232q0 -35 10 -65.5t29 -56.5
q20 -26 46.5 -39t59.5 -13t58 13t43 39q17 26 26 55t9 60q0 34 -9.5 62.5t-27.5 51.5q-19 23 -44.5 34.5t-57.5 11.5h-4h-4h-2h-2q-1 -1 -1.5 -1h-1.5q-24 -3 -46 -13.5t-42 -30.5q-19 -19 -29 -47t-10 -63v2v0z" />
    <glyph glyph-name="seven" unicode="7" horiz-adv-x="556" 
d="M48 621v85h463v-68q-10 -13 -24 -29.5t-31 -39.5q-17 -22 -34.5 -48.5t-35.5 -57.5q-25 -44 -49 -96t-46 -111t-35 -123.5t-18 -132.5h-90q0 32 5 70t15 81q9 44 23 88t33 90q15 38 34 76.5t41 75.5q22 38 46.5 72.5t52.5 65.5l-350 2v0v0z" />
    <glyph glyph-name="eight" unicode="8" horiz-adv-x="556" 
d="M178 387v2q-4 0 -10 1.5t-12 4.5q-3 1 -6 2.5t-6 3.5q-4 2 -7 4l-6 4q-12 8 -22.5 18.5t-19.5 25.5q-9 14 -13.5 34t-4.5 45q0 38 13.5 70t40.5 60q27 27 64.5 41t86.5 14q50 0 88.5 -14.5t65.5 -43.5q27 -28 40.5 -60.5t13.5 -68.5q0 -24 -5 -43t-14 -33
q-9 -15 -19.5 -25.5t-21.5 -18.5l-12 -8t-12 -7t-11 -4.5t-10 -3.5v0q29 -11 53 -26.5t43 -38.5q19 -22 28.5 -52t9.5 -68q0 -45 -16 -82.5t-48 -69.5q-32 -31 -75 -46.5t-96 -15.5q-54 0 -97 15.5t-75 46.5q-32 32 -48 70.5t-16 84.5q0 8 1 17.5t2 19.5q2 11 5 22t8 22
q2 5 4 9t4 9q2 4 5 8.5t6 8.5q6 9 13.5 17.5t17.5 15.5q10 8 19 13.5t18 8.5q8 3 16.5 5.5t16.5 3.5v2v0zM132 206q0 -32 10 -58t30 -47q20 -22 46.5 -32.5t59.5 -10.5q29 0 54.5 9.5t47.5 28.5q21 20 32 46t11 60t-11 61t-33 46q-22 20 -48 29.5t-55 9.5q-34 0 -61 -11
t-46 -34q-19 -22 -28 -47t-9 -52v2v0zM161 537q0 -29 8.5 -50.5t25.5 -35.5t35.5 -21.5t39.5 -9.5h2h2h2h2q24 0 45 7.5t37 23.5q17 15 25.5 35t8.5 44t-8.5 45t-25.5 37q-16 17 -37 25t-46 8q-27 0 -48 -8.5t-37 -25.5t-23.5 -36t-7.5 -40v2v0z" />
    <glyph glyph-name="nine" unicode="9" horiz-adv-x="556" 
d="M56 166l84 7q1 -5 2.5 -11t2.5 -14q1 -4 2 -7.5t2 -6.5q1 -4 3 -7.5t4 -7.5q5 -12 14 -22.5t21 -19.5q12 -10 29 -14.5t39 -4.5q35 0 61 11.5t43 34.5t29.5 49t19.5 54q5 19 7.5 37t3.5 35q2 17 2.5 31.5t0.5 24.5l-2 2q-2 -5 -4.5 -8.5t-4.5 -6.5q-1 -1 -2 -3t-3 -3
q-1 -2 -2 -3.5t-3 -3.5q-12 -13 -27 -24.5t-34 -22.5q-19 -10 -41 -15.5t-48 -5.5q-41 0 -78 15t-69 46q-33 30 -49 73.5t-16 99.5q0 53 16 96.5t47 77.5q32 34 72.5 51t89.5 17q26 0 51 -5.5t48 -16.5q23 -10 43 -26t37 -36q14 -17 26 -40t21 -52q9 -28 14 -71t5 -99
q0 -13 -0.5 -31.5t-2.5 -44.5q-1 -25 -5 -52t-12 -55q-10 -38 -28.5 -72.5t-44.5 -66.5q-27 -31 -67.5 -46t-95.5 -15q-7 0 -16.5 0.5t-23.5 2.5q-13 1 -27.5 5t-29.5 10q-18 8 -34 21t-31 31t-24.5 45t-14.5 61v2v0zM416 481q0 32 -9.5 61t-28.5 54q-19 24 -43.5 36.5
t-56.5 12.5q-31 0 -57.5 -12.5t-46.5 -38.5q-21 -25 -31 -56t-10 -66t10.5 -63t31.5 -49t46.5 -31.5t54.5 -10.5q35 0 61.5 12t43.5 37q17 24 26 52.5t9 59.5v2v0z" />
    <glyph glyph-name="colon" unicode=":" 
d="M90 0v100h100v-100h-100v0v0zM90 418v100h100v-100h-100v0v0z" />
    <glyph glyph-name="semicolon" unicode=";" 
d="M90 0v100h100v-100q0 -6 -0.5 -14t-1.5 -18q-1 -9 -3 -19t-6 -20t-10 -19.5t-14 -18.5q-9 -9 -20.5 -17t-26.5 -15l-24 37q17 8 28.5 19t15.5 25q5 14 7.5 29t3.5 31h-49v0v0zM90 418v100h100v-100h-100v0v0z" />
    <glyph glyph-name="less" unicode="&#x3c;" horiz-adv-x="584" 
d="M55 313v82l474 200v-87l-376 -154l376 -156v-87l-474 202v0v0z" />
    <glyph glyph-name="equal" unicode="=" horiz-adv-x="584" 
d="M529 203h-474v82h474v-82v0v0zM529 421h-474v82h474v-82v0v0z" />
    <glyph glyph-name="greater" unicode="&#x3e;" horiz-adv-x="584" 
d="M529 393v-82l-474 -200v87l376 154l-376 156v87l474 -202v0v0z" />
    <glyph glyph-name="question" unicode="?" horiz-adv-x="556" 
d="M227 0v100h100v-100h-100v0v0zM136 511l-90 10q1 5 2.5 13t2.5 18q2 9 5.5 20t8.5 23q9 23 21 41t27 31q15 14 30 23.5t31 16.5q15 6 29.5 10t27.5 5q14 2 25.5 3t21.5 1q50 0 91.5 -14t73.5 -42t48.5 -62.5t16.5 -76.5q0 -25 -5 -46t-16 -39q-10 -18 -23.5 -34.5
t-30.5 -32.5q-4 -4 -7.5 -8t-8.5 -8l-4 -4t-4 -3q-3 -2 -5 -4l-4 -4q-9 -8 -17 -15.5t-15 -13.5q-7 -7 -12 -13l-10 -12q-9 -10 -14.5 -22t-8.5 -25t-4.5 -31.5t-1.5 -41.5l-84 2v0v2v2v2v0.5v1.5v0.5v1.5q-1 2 -1 3.5v2.5v3.5v2.5q0 26 3 48t9 38q6 17 15.5 32.5t22.5 30.5
q6 8 13 15.5t15 14.5q8 8 17 15.5t19 16.5l4 4t5 4q2 1 4 3l4 4q4 3 7.5 6.5l7.5 7.5q9 9 16 19t13 20q5 11 8 23t3 25q0 25 -10 47.5t-30 41.5q-19 20 -44 30t-55 10q-32 0 -56.5 -10.5t-41.5 -30.5t-28.5 -46t-16.5 -58v2v0z" />
    <glyph glyph-name="at" unicode="@" horiz-adv-x="1015" 
d="M643 439l17 76h87l-70 -328q-4 -17 -6.5 -29.5t-4.5 -21.5q-2 -10 -3 -16.5t-1 -9.5q0 -7 2 -13t6 -11q5 -4 11 -6.5t15 -2.5q8 0 17 2.5t20 8.5q11 5 23 13t24 18q20 17 38 40t34 52q17 29 25 63.5t8 73.5q0 68 -25.5 123.5t-76.5 98.5t-113 64.5t-135 21.5
q-94 0 -169 -32t-129 -95q-55 -63 -82 -136.5t-27 -157.5q0 -100 29.5 -171t89.5 -111q60 -41 125.5 -63.5t137.5 -26.5h4.5h5.5h4.5h4.5h4.5t5.5 -1h4.5h5.5q53 0 97.5 6.5t78.5 20.5q35 13 62.5 28t48.5 32q11 8 19.5 16t15.5 16t12.5 14t9.5 12l88 2q-3 -5 -9 -14.5
t-17 -25.5q-10 -16 -26 -33t-37 -35q-25 -21 -58.5 -40t-74.5 -36q-42 -17 -94 -26t-115 -9q-132 0 -227 33.5t-152 99.5q-58 65 -86.5 141t-28.5 163q0 20 1.5 40.5t4.5 42.5t9 44.5t13 44.5q20 62 56 118t90 107t131.5 77t177.5 26t176 -28t128 -84q52 -55 80.5 -116.5
t32.5 -127.5v-3.5t1 -3.5v-2.5v-3.5v-6v-6q0 -67 -21 -126t-63 -109t-88 -78t-96 -33h-3t-3 -1h-3.5h-3.5h-3t-3 -1h-3.5h-3.5q-23 0 -39.5 3.5t-25.5 11.5q-10 8 -16 17t-8 19q-1 3 -2 6.5t-1 7.5q-1 4 -1.5 7.5t-0.5 7.5q-3 -4 -6.5 -7.5l-8.5 -8.5q-2 -2 -4.5 -4t-4.5 -4
q-2 -3 -4.5 -5t-4.5 -4q-11 -9 -24 -17t-28 -16q-15 -7 -31 -10t-34 -3q-38 0 -69.5 15.5t-57.5 46.5q-25 32 -37.5 70.5t-12.5 84.5v10t1 10q0 5 0.5 10.5t1.5 11.5q7 50 28 96.5t57 88.5t77.5 63t87.5 21q7 0 17.5 -1.5t23.5 -3.5q14 -3 28 -10t29 -18q3 -3 6 -5.5t7 -5.5
q3 -3 6 -6.5t6 -6.5l6 -8t7 -8l6 -8t6 -9v2v0zM332 212q0 -33 6.5 -57.5t19.5 -41.5q14 -17 28.5 -27.5t30.5 -14.5q2 -1 4.5 -1.5t5.5 -0.5h4.5h5.5h1.5h1.5h0.5h1.5h3.5t2.5 1q32 3 60.5 22.5t54.5 55.5t39 77.5t13 89.5q0 35 -8.5 61t-25.5 44q-17 17 -36.5 26t-42.5 9
q-29 0 -53 -12t-43 -35t-33.5 -48.5t-23.5 -52.5q-4 -13 -7.5 -26t-5.5 -26t-3 -24t-1 -21v2v0z" />
    <glyph glyph-name="A" unicode="A" horiz-adv-x="667" 
d="M-1 0l275 716h102l292 -716h-107l-84 218h-299l-79 -218h-100v0v0zM284 504l-79 -211h243l-75 199q-1 0 -1.5 1.5t-0.5 2.5q-1 2 -1.5 3.5t-1.5 2.5q-1 2 -1.5 3.5t-0.5 3.5q-1 1 -1.5 3t-0.5 3q-6 14 -11 28.5t-10 29.5t-9.5 31.5t-9.5 34.5l-2 2q-4 -19 -7.5 -36.5
t-8.5 -34.5q-4 -17 -10 -34l-12 -34v2v0z" />
    <glyph glyph-name="B" unicode="B" horiz-adv-x="667" 
d="M74 0v716h269q10 -2 21.5 -2.5t24.5 -1.5t26.5 -3t26.5 -5q5 -1 9 -3t9 -3q4 -2 8.5 -3.5t8.5 -3.5q8 -4 16.5 -9t16.5 -11q17 -13 30 -29t22 -34q9 -19 13.5 -38t4.5 -39q0 -6 -1 -15.5t-3 -21.5q-2 -13 -8 -26t-15 -27q-6 -9 -13 -17t-16 -16t-19.5 -15.5t-23.5 -13.5
q26 -8 46.5 -19.5t34.5 -26.5t24.5 -30t16.5 -30q3 -9 5.5 -18t3.5 -17q2 -9 2.5 -16.5t0.5 -15.5q0 -31 -8 -58.5t-23 -53.5q-16 -25 -36 -43t-46 -28q-23 -10 -44 -15t-41 -7q-19 -1 -36.5 -1h-32.5h-274v0v0zM169 331v-246h178q7 -2 15 -2h18q9 0 19 1.5t20 3.5
q18 4 35 12t32 21q15 12 23 33.5t8 51.5t-8 51t-25 34q-16 13 -34.5 21t-38.5 12q-10 2 -20.5 3t-20.5 1h-10t-9 1h-8h-8l-166 2v0v0zM169 631v-215h155q6 -2 12 -2h13t14 0.5t14 1.5q20 2 39 7.5t36 15.5q17 11 26 30.5t9 49.5q0 35 -11 57t-33 32q-22 9 -45.5 14.5
t-49.5 6.5h-8.5h-9.5h-8.5h-9.5l-143 2v0v0z" />
    <glyph glyph-name="C" unicode="C" horiz-adv-x="722" 
d="M589 251l94 -24q-12 -47 -28.5 -82t-38.5 -59q-22 -25 -45 -42.5t-47 -28.5q-19 -9 -38 -13.5t-37 -7.5t-33.5 -4.5t-28.5 -1.5q-46 0 -84 6.5t-67 19.5q-29 14 -52 30.5t-40 35.5q-13 15 -24 31t-20 33t-15.5 34t-11.5 35q-6 20 -10.5 39.5t-6.5 38.5q-3 19 -4 36.5
t-1 33.5q0 95 25.5 164t77.5 113q51 44 109.5 66t124.5 22q48 0 91.5 -12.5t82.5 -37.5t66 -64.5t43 -94.5l-93 -20q-2 4 -4.5 10t-4.5 13q-3 6 -6 13l-6 14q-10 18 -24.5 35t-34.5 32q-19 15 -47 23t-64 8q-56 0 -96.5 -15.5t-66.5 -45.5q-25 -30 -41.5 -63.5t-24.5 -69.5
q-3 -12 -4.5 -23.5t-2.5 -22.5t-1.5 -21.5t-0.5 -21.5q0 -7 0.5 -20.5t1.5 -32.5q2 -19 5.5 -39t9.5 -41q3 -12 7.5 -23.5t10.5 -22.5q5 -12 12 -22.5t15 -19.5q14 -16 30 -28.5t34 -21.5t36.5 -14.5t37.5 -7.5q3 -1 7 -1.5t8 -0.5h7.5h7.5q47 0 82 12.5t59 37.5
q23 26 39 53.5t25 58.5q0 2 0.5 4.5t1.5 5.5q1 2 1.5 4.5t1.5 5.5v2v0z" />
    <glyph glyph-name="D" unicode="D" horiz-adv-x="722" 
d="M80 0v716h247q14 -2 27.5 -2.5t28.5 -0.5q14 -1 28.5 -2.5t29.5 -3.5q19 -4 37.5 -10t37.5 -15q18 -9 35.5 -23t33.5 -32q1 -1 1.5 -2t1.5 -1q1 -1 1.5 -2t1.5 -2q2 -2 3.5 -4t2.5 -4q14 -18 26.5 -42t24.5 -54t18 -69t6 -87q0 -50 -7 -93.5t-21 -79.5q-14 -37 -33 -66
t-42 -51q-21 -19 -45 -33t-53 -22q-28 -7 -57 -11t-59 -4h-4.5h-4.5h-4h-4h-258v0v0zM175 631v-546h153v-2v0v0h1v0v0h21t24 1q13 0 26 2t26 6q28 8 53.5 25.5t48.5 45.5q23 29 34.5 78.5t11.5 120.5v8v8q-1 4 -1 8.5v8.5v9t-1 9q0 4 -0.5 8.5t-1.5 8.5q-3 21 -8.5 42
t-13.5 41t-21 38t-30 33q-19 17 -39 26.5t-42 12.5t-45 4.5t-46 1.5l-150 2v0v0z" />
    <glyph glyph-name="E" unicode="E" horiz-adv-x="667" 
d="M79 0v716h518v-85h-423v-219h396v-85h-396v-242h440v-85h-535v0v0z" />
    <glyph glyph-name="F" unicode="F" horiz-adv-x="611" 
d="M80 0v716h483v-85h-388v-222h336v-85h-336v-324h-95v0v0z" />
    <glyph glyph-name="G" unicode="G" horiz-adv-x="778" 
d="M411 280v85h303v-265q-6 -6 -13 -12t-16 -13t-19.5 -13.5t-22.5 -13.5q-20 -12 -44 -22.5t-53 -19.5q-28 -8 -60 -13t-68 -5q-82 0 -148 24t-117 73q-51 50 -76 116.5t-25 151.5q0 15 1 31t3 33t6 34.5t10 35.5q14 44 39.5 85.5t64.5 78.5q39 38 97.5 56.5t137.5 18.5
q53 0 94 -9t70 -27t51 -37.5t36 -40.5q10 -15 17 -28.5t11 -27.5q5 -13 8 -23.5t5 -18.5l-85 -22q-2 5 -4.5 12.5l-5.5 16.5t-7.5 18t-10.5 19q-10 17 -25.5 32t-35.5 28q-21 14 -50.5 20.5t-67.5 6.5q-54 0 -95 -12t-68 -36t-45.5 -50.5t-29.5 -55.5q-7 -19 -12 -38t-7 -37
t-3 -32t-1 -25q0 -28 3.5 -56.5t10.5 -55.5t19.5 -51t31.5 -45q15 -16 32.5 -29.5t37.5 -22.5t41 -15.5t42 -9.5q5 -1 10.5 -1.5t11.5 -0.5q3 0 6 -0.5t6 -0.5h5h6q23 0 44.5 3t40.5 9q20 6 37 12.5t31 13.5q11 6 20 11.5t16 9.5q7 5 12 8.5t8 6.5v135h-211v0v0z" />
    <glyph glyph-name="H" unicode="H" horiz-adv-x="722" 
d="M80 0v716h95v-294h372v294h95v-716h-95v337h-372v-337h-95v0v0z" />
    <glyph glyph-name="I" unicode="I" 
d="M92 0v716h95v-716h-95v0v0z" />
    <glyph glyph-name="J" unicode="J" horiz-adv-x="500" 
d="M27 204l85 12v-14.5t1 -14.5q1 -7 2.5 -14.5t2.5 -15.5q3 -16 10.5 -30.5t17.5 -28.5q11 -13 29.5 -20t43.5 -7q29 0 49 7.5t30 23.5q11 15 17 32.5t8 36.5q0 3 0.5 6t0.5 7q1 3 1 6v6v12v12v0v1v0v0v0v1v0v0v494h95v-487q0 -11 -0.5 -23.5t-1.5 -26.5q-1 -15 -3 -30
t-6 -30q-7 -25 -21 -48t-35 -43q-21 -21 -54 -30.5t-80 -9.5q-8 0 -17 0.5t-19 1.5l-10 2l-10 2q-6 1 -11 2t-10 3q-18 4 -35 15.5t-34 27.5q-16 17 -27 42.5t-16 61.5q-1 8 -2 15t-1 13v11.5v9.5v1.5v1.5v2v2v2v0z" />
    <glyph glyph-name="K" unicode="K" horiz-adv-x="667" 
d="M73 0v716h95v-355l356 355h128l-300 -290l313 -426h-125l-254 362l-118 -114v-248h-95v0v0z" />
    <glyph glyph-name="L" unicode="L" horiz-adv-x="556" 
d="M75 0v716h95v-631h353v-85h-448v0v0z" />
    <glyph glyph-name="M" unicode="M" horiz-adv-x="833" 
d="M76 0v716h142l169 -507q8 -25 13.5 -42t8.5 -27t5.5 -18t3.5 -14v-0.5t1 -0.5v-1v0v-1.5v-0.5v-1.5v-0.5v0h1v-1v0l2 2q1 1 1.5 3t1.5 4q0 1 0.5 3t1.5 4q1 3 2 6.5t2 7.5v0l1 1v0v0v0.5v1.5q2 7 5 14.5t6 16.5q3 8 7 21t10 30l171 500h126v-716h-90v599h-2l-206 -599
h-85l-205 609h-3v-609h-90v0v0z" />
    <glyph glyph-name="N" unicode="N" horiz-adv-x="722" 
d="M79 0v716h97l374 -562h2v562h90v-716h-97l-374 562h-2v-562h-90v0v0z" />
    <glyph glyph-name="O" unicode="O" horiz-adv-x="778" 
d="M47 349q0 94 25.5 165t76.5 118t111 70.5t130 23.5q73 0 134 -24.5t110 -74.5q49 -49 73.5 -117.5t24.5 -154.5q0 -87 -25 -155t-75 -116q-49 -49 -110 -72.5t-132 -23.5q-84 0 -148 27.5t-108 82.5q-43 56 -65 118t-22 131v2v0zM145 347q0 -64 16.5 -114.5t50.5 -88.5
q34 -39 78 -58t99 -19q49 0 91.5 17.5t79.5 52.5t55.5 89.5t18.5 128.5q0 77 -19 132.5t-57 89.5q-37 34 -79 51t-88 17q-28 0 -56 -6.5t-54 -18.5q-27 -12 -48 -30t-37 -41q-6 -8 -11 -17t-9 -18q-2 -4 -4 -9t-4 -9q-1 -5 -2.5 -9.5t-3.5 -9.5q-7 -22 -10.5 -42t-4.5 -40
q-1 -19 -1.5 -31.5t-0.5 -18.5v2v0z" />
    <glyph glyph-name="P" unicode="P" horiz-adv-x="667" 
d="M77 0v716h270q11 -2 21.5 -2.5t22.5 -0.5t24 -0.5t24 -2.5q8 -1 15.5 -2.5t15.5 -3.5q7 -2 15 -4t15 -4q15 -5 28.5 -12.5t25.5 -17.5q14 -12 25 -25.5t19 -29.5t13.5 -31.5t8.5 -32.5q0 -5 0.5 -10t1.5 -10v-5.5t1 -4.5v-5.5v-4.5q0 -22 -3.5 -43t-10.5 -42t-18.5 -39
t-27.5 -34q-10 -10 -21.5 -18t-25.5 -14q-7 -3 -13.5 -6t-12.5 -5q-7 -2 -13.5 -4t-13.5 -4q-13 -3 -26.5 -5t-26.5 -3t-24 -1.5t-21 -0.5l-193 2v-290h-95v0v0zM172 631v-256h184q7 -2 15 -2t18 1q9 0 19 1.5t20 4.5q18 5 35 14t32 22q15 14 22.5 35.5t7.5 52.5
q0 5 -0.5 9.5t-1.5 9.5t-1.5 10.5t-2.5 11.5q-2 7 -5 14t-7 14t-9.5 13.5t-11.5 12.5q-13 11 -27 18t-30 8q-16 2 -34.5 3t-40.5 1l-182 2v0v0z" />
    <glyph glyph-name="Q" unicode="Q" horiz-adv-x="778" 
d="M745 10l-28 -66q-20 7 -39.5 16t-37.5 20q-19 10 -36.5 21.5t-34.5 24.5l-5 6q-21 -13 -42 -21t-44 -12q-22 -5 -44.5 -8t-45.5 -3q-75 0 -136.5 25t-109.5 77q-48 51 -71.5 117.5t-23.5 148.5q0 78 22.5 144t68.5 119q45 53 108 80t144 27q74 0 135 -25t110 -75
q48 -50 72.5 -117.5t24.5 -151.5q0 -16 -1.5 -33.5t-3.5 -35.5q-2 -19 -6.5 -37.5t-10.5 -36.5q-6 -19 -14 -37t-19 -36q-10 -18 -23.5 -34.5t-29.5 -31.5q14 -10 29 -19.5t30 -17.5q15 -9 30.5 -16.5t31.5 -13.5v2v0zM392 129l23 69q15 -6 28.5 -11t24.5 -10q6 -2 11 -4.5
t10 -4.5q5 -3 10 -5.5l9 -4.5q7 -4 13 -8t11 -8t9.5 -8t8.5 -7q14 13 25 27t20 30q8 15 15 31.5t11 32.5q3 14 6 28.5t4 27.5q2 14 2.5 27t0.5 25q0 75 -18.5 130.5t-56.5 89.5q-37 35 -79.5 52t-89.5 17q-9 0 -18 -0.5t-18 -2.5q-10 -1 -19.5 -3t-18.5 -5
q-32 -10 -61.5 -30t-56.5 -52q-27 -31 -40 -80.5t-13 -115.5q0 -75 17.5 -128.5t51.5 -86.5q35 -33 72.5 -51.5t79.5 -21.5h3.5h2.5q2 -1 3.5 -1h2.5h6h6q11 0 21.5 1t19.5 2q9 2 17 3.5t15 3.5q2 1 4 1.5t3 1.5q2 0 4 0.5t3 1.5q3 2 5.5 2.5t3.5 1.5q-11 7 -22.5 13
t-22.5 11q-12 5 -24 9.5t-25 7.5v2v0z" />
    <glyph glyph-name="R" unicode="R" horiz-adv-x="722" 
d="M80 0v716h317q15 -2 29.5 -2.5t28.5 -1.5t28.5 -3t28.5 -5q3 -1 6.5 -2t7.5 -2q2 -1 3.5 -1.5t3.5 -0.5q1 -1 3 -1.5t4 -1.5q27 -10 48 -28t35 -43t21.5 -51.5t7.5 -54.5q0 -43 -14 -76.5t-41 -57.5t-63.5 -38.5t-82.5 -20.5v0q14 -8 29 -18t31 -23q17 -13 35.5 -36
t39.5 -55l125 -193h-119l-94 148q-23 34 -42.5 60.5t-34.5 44.5q-15 17 -29 29t-28 19q-4 2 -9 4t-9 3q-5 1 -9.5 2t-9.5 2q-10 1 -20.5 1.5t-22.5 0.5l-109 2v-316h-95v0v0zM175 637v-236h217q6 -2 12.5 -2h13.5t14.5 1.5t14.5 2.5q10 2 19.5 4t19.5 6q9 3 17 8t15 12
q8 8 15 18t11 21q5 11 7.5 22.5t2.5 23.5q0 17 -4 31.5t-12 27.5t-18 22.5t-21 15.5t-22.5 10t-23.5 6t-25 3t-27 1l-226 2v0v0z" />
    <glyph glyph-name="S" unicode="S" horiz-adv-x="667" 
d="M45 230l90 8q0 -7 1 -13.5t2 -14.5q2 -8 4 -16.5t5 -16.5q0 -1 0.5 -2t1.5 -1q0 -1 0.5 -2t0.5 -2t0.5 -2t1.5 -1q0 -1 0.5 -2t1.5 -2q8 -16 19.5 -29t25.5 -22q14 -10 29 -16.5t31 -11.5l12 -4t12 -3q5 -1 11 -2l12 -2q11 -1 21 -1.5t19 -0.5q37 0 68.5 7.5t57.5 23.5
q26 15 39 38t13 53q0 25 -8.5 43.5t-25.5 30.5t-42.5 22.5t-60.5 20.5q-9 2 -18.5 4.5t-19.5 5.5q-10 2 -20.5 4.5t-21.5 5.5q-9 2 -18.5 4t-19.5 5q-10 2 -19.5 5t-19.5 7q-30 9 -57 24t-51 34q-25 20 -37 49.5t-12 69.5q0 41 16.5 76.5t49.5 63.5q33 29 79 43.5t106 14.5
q58 0 105.5 -14t84.5 -41q38 -27 57.5 -67t21.5 -93l-91 -5q-1 4 -1.5 9.5t-2.5 11.5q-1 6 -2.5 12.5t-3.5 13.5q-7 17 -19 32t-30 28q-18 14 -46.5 21t-68.5 7h-6.5h-7.5q-4 -1 -7.5 -1h-7.5t-8 -0.5t-7 -1.5q-4 -1 -8 -1.5t-8 -1.5q-19 -4 -37 -11.5t-35 -18.5
q-16 -12 -24.5 -29.5t-8.5 -41.5q0 -20 6.5 -35.5t19.5 -26.5q14 -11 38 -21.5t59 -19.5q3 -1 5.5 -1.5t5.5 -0.5q3 -1 6 -1.5t6 -1.5q6 -1 12 -2.5t13 -3.5q3 -1 5.5 -1.5t5.5 -0.5q2 -1 5 -1.5t6 -1.5t5.5 -1.5t5.5 -0.5q3 -1 6 -1.5t6 -1.5q44 -10 84.5 -26t77.5 -37
t55.5 -57.5t18.5 -89.5q0 -45 -18 -82.5t-54 -68.5t-84 -46t-109 -15q-64 0 -113 10t-81 32q-33 22 -56 49.5t-37 60.5q-6 14 -9.5 27t-5.5 24q-1 11 -2 20.5t-1 16.5v2v0z" />
    <glyph glyph-name="T" unicode="T" horiz-adv-x="611" 
d="M257 0v631h-235v85h567v-85h-237v-631h-95v0v0z" />
    <glyph glyph-name="U" unicode="U" horiz-adv-x="722" 
d="M547 716h95v-414q0 -14 -0.5 -30t-1.5 -34q0 -9 -1 -18t-3 -18q-1 -10 -3 -19l-4 -18q-9 -34 -28 -64.5t-48 -58.5q-28 -28 -76 -41t-115 -13q-77 0 -129.5 16t-80.5 49t-45 70t-22 77q-2 13 -3.5 25.5t-1.5 25.5q-1 13 -1 25v24v416h95v-413v-21v-21q0 -10 1.5 -20.5
t2.5 -21.5q4 -28 14.5 -53.5t28.5 -48.5t51 -34.5t82 -11.5q66 0 106.5 16.5t55.5 49.5t23 74t8 90v415v0v0z" />
    <glyph glyph-name="V" unicode="V" horiz-adv-x="667" 
d="M283 0l-277 716h102l186 -520l5 -12q1 -4 2 -7t2 -5q0 -3 1 -5.5t2 -4.5q2 -4 3.5 -8t2.5 -8v-2v-2t0.5 -2t1.5 -2q2 -5 3.5 -11t3.5 -13t4.5 -16.5t5.5 -20.5l2 2q1 1 1.5 3.5t1.5 4.5q0 2 0.5 4.5t1.5 5.5q1 2 1.5 4.5t1.5 5.5q1 2 1.5 4.5t1.5 4.5l4 14t5 14
q2 7 4.5 13.5t4.5 13.5q0 2 0.5 3l1.5 3q0 1 0.5 2.5t1.5 2.5l2 6l2 6l194 522h96l-280 -716h-97v0v0z" />
    <glyph glyph-name="W" unicode="W" horiz-adv-x="944" 
d="M203 0l-191 716h97l110 -470v-3v-1v-0.5t1 -0.5v-1v0q5 -23 9.5 -45t8.5 -42t6.5 -33.5t3.5 -21.5l2 2q1 4 2.5 10.5t3.5 14.5t4 16.5t4 17.5v0.5v1.5v0.5t1 1.5v0.5v0.5q2 11 4.5 21t4.5 20q2 9 4 15.5t3 10.5l136 485h115l102 -362q1 -5 2 -9t2 -7q1 -4 2 -7.5t2 -7.5
q2 -10 4.5 -19.5t5.5 -20.5q2 -10 4.5 -20.5t5.5 -21.5q5 -19 8.5 -38.5t7.5 -38.5q3 -19 6 -35.5t5 -30.5l2 2q0 1 0.5 3t1.5 5q0 2 0.5 4.5t1.5 4.5q1 8 2.5 15.5t2.5 14.5q1 4 2 7.5t2 7.5q0 3 1 6.5t2 7.5q2 11 4.5 22t4.5 21t4.5 19t4.5 16l113 462h95l-197 -716h-91
l-156 564q-1 1 -1.5 3.5t-1.5 5.5q-1 2 -1.5 4.5t-1.5 4.5t-1.5 4t-0.5 5q-1 2 -1.5 4t-0.5 4q-1 2 -1.5 3.5t-0.5 3.5q-1 1 -1.5 3t-0.5 3q-1 3 -1.5 7t-0.5 8l-2 2q-2 -12 -4.5 -22.5t-4.5 -21.5q-1 -5 -2.5 -10.5t-2.5 -10.5q-2 -5 -3 -10.5t-3 -10.5l-152 -543h-96v0v0z
" />
    <glyph glyph-name="X" unicode="X" horiz-adv-x="667" 
d="M5 0l277 373l-245 343h113l130 -184q1 -2 1.5 -3.5t1.5 -2.5q0 -1 0.5 -2t1.5 -2l1.5 -1.5l1.5 -1.5q0 -1 0.5 -1.5l1.5 -1.5q0 -1 0.5 -2t1.5 -2t1.5 -2t1.5 -2q5 -8 10.5 -16.5t11.5 -16.5q5 -8 10.5 -16.5t9.5 -16.5q0 1 0.5 2t1.5 2t1.5 2t1.5 2v0v0v0l1 1v0.5v0.5
q2 2 4 5t5 7l6 9t9 13q1 2 2 3.5t2 2.5t1.5 2t1.5 2l0.5 1t1.5 2v0l1 1v0v0v0l1 1v0v0q1 2 2 3.5t2 3.5q1 1 2 3t2 3q2 3 4.5 5.5t3.5 4.5l144 192h103l-251 -337l271 -379h-117l-180 255q-6 7 -11 13.5t-8 11.5t-6 10.5t-5 10.5l-2 2v-1.5v-0.5q-1 -1 -1 -1.5v-0.5
l-1.5 -1.5t-0.5 -1.5v0v0v0v0v-0.5v-0.5l-1 -1v0q-1 -1 -1 -1.5v-0.5q-2 -4 -5 -8t-6 -9q-1 -3 -3 -5.5t-3 -4.5q-2 -3 -3.5 -5.5t-3.5 -4.5q-1 -1 -1.5 -2t-1.5 -2t-1.5 -2t-0.5 -2l-179 -247h-114v0v0z" />
    <glyph glyph-name="Y" unicode="Y" horiz-adv-x="667" 
d="M281 0v303l-276 413h115l141 -216q8 -14 15 -25.5t13 -20.5q5 -9 10.5 -17.5t10.5 -16.5v-0.5t1 -0.5v-1.5v-0.5q0 -1 0.5 -1.5l1.5 -1.5q2 -4 4.5 -8.5t5.5 -9.5q1 -2 2.5 -4.5t2.5 -4.5q2 -3 3.5 -5.5t2.5 -4.5q2 5 4.5 9.5t5.5 8.5q2 2 3 4.5t3 4.5q1 2 2.5 4.5
t2.5 4.5q1 1 1.5 2t1.5 2v1.5t1 1.5l0.5 0.5l1.5 1.5q9 15 17.5 28.5t15.5 25.5q8 12 12.5 19t5.5 8l139 213h110l-285 -413v-303h-95v0v0z" />
    <glyph glyph-name="Z" unicode="Z" horiz-adv-x="611" 
d="M18 0v89l367 457q0 -1 4 3.5t11 13.5q8 9 16.5 19.5t18.5 21.5l2 2l2 2l1 1l2 2l2 2l2 2q0 1 1 2l2 2l1.5 1.5l1.5 1.5l0.5 0.5l1.5 1.5l1.5 1.5l1.5 1.5l0.5 0.5l1.5 1.5l-400 2v85h513v-85l-402 -495q0 -2 -1.5 -4.5t-4.5 -5.5t-6 -6.5t-6 -7.5q-2 -2 -3.5 -4t-3.5 -4
q-1 -2 -2.5 -3.5l-3.5 -3.5l-12 -12h457v-85h-566v0v0z" />
    <glyph glyph-name="bracketleft" unicode="[" 
d="M68 -199v915h194v-73h-106v-769h106v-73h-194v0v0z" />
    <glyph glyph-name="backslash" unicode="\" 
d="M207 -24l-207 740h71l207 -740h-71v0v0z" />
    <glyph glyph-name="bracketright" unicode="]" 
d="M210 716v-915h-194v73h106v769h-106v73h194v0v0z" />
    <glyph glyph-name="asciicircum" unicode="^" horiz-adv-x="469" 
d="M116 325h-90l173 391h71l173 -391h-89l-120 292l-118 -292v0v0z" />
    <glyph glyph-name="underscore" unicode="_" horiz-adv-x="556" 
d="M-6 -125v50h568v-50h-568v0v0z" />
    <glyph glyph-name="grave" unicode="`" horiz-adv-x="333" 
d="M157 728l65 -137h-72l-108 137h115v0v0z" />
    <glyph glyph-name="a" unicode="a" horiz-adv-x="556" 
d="M139 359l-86 11q2 5 3.5 12.5t4.5 17.5q2 9 6.5 19t11.5 20q10 17 26.5 32t40.5 29q23 14 58.5 21t82.5 7q66 0 107.5 -12.5t57.5 -37.5q17 -25 26 -53t10 -58v-4v-4v-5v-4v-8.5v-8.5v-116q0 -44 0.5 -76t1.5 -52t5 -38t11 -33q1 -3 2 -5.5t2 -4.5q2 -3 3.5 -5t2.5 -3
h-92q-5 8 -8 17t-5 18q-1 8 -2.5 15t-2.5 12q-28 -24 -53.5 -39t-48.5 -22q-24 -6 -46 -9.5t-43 -3.5q-43 0 -75.5 10t-55.5 31t-34.5 47.5t-11.5 58.5t8.5 56t26.5 40q18 17 37.5 29t40.5 19q13 4 25.5 7t24.5 5t22.5 3.5t18.5 2.5q3 0 11.5 1.5t22.5 2.5q14 2 29 4.5
t31 5.5q8 2 16.5 3.5t17.5 3.5q8 2 15.5 4t14.5 5v4.5v5.5v3v3v2.5v2.5v1.5v1.5v0.5v1.5v1.5v1.5v0.5v1.5q-1 18 -7.5 35t-17.5 32t-36.5 23t-64.5 8q-34 0 -57 -6t-36 -17q-13 -12 -21.5 -24.5t-13.5 -26.5q-1 -1 -1.5 -3t-0.5 -3q-1 -2 -1.5 -3.5t-0.5 -3.5q-1 -3 -1.5 -6
t-1.5 -6v2v0zM400 228v32q-8 -5 -18 -8t-21 -6l-24 -6t-24 -5q-7 -1 -14.5 -2.5t-15.5 -3.5q-7 -1 -14.5 -2t-13.5 -2q-4 -1 -7.5 -1.5t-7.5 -0.5q-4 -1 -7.5 -1.5t-7.5 -1.5q-18 -3 -34 -9t-30 -14q-15 -9 -22 -24t-7 -36v-4.5v-4.5t0.5 -4t1.5 -4q2 -12 9 -23t19 -22
q12 -10 30.5 -15t43.5 -5q6 0 14.5 1t18.5 2q11 2 22 5t23 8q6 2 12 5.5t12 7.5q3 2 6 4.5t6 4.5q2 3 5 5.5t6 5.5q13 14 21 29t11 30t5 31t2 32v2v0z" />
    <glyph glyph-name="b" unicode="b" horiz-adv-x="556" 
d="M149 0h-82v716h88v-256h2q2 1 4.5 4.5t6.5 7.5q3 5 7.5 9.5t10.5 8.5q8 7 19.5 13.5t24.5 12.5q14 6 31 9t36 3q53 0 93.5 -19t68.5 -57q29 -37 43.5 -84t14.5 -103q0 -58 -11 -102.5t-33 -74.5q-22 -31 -46.5 -52t-51.5 -32q-5 -2 -10.5 -3.5t-10.5 -3.5
q-6 -1 -11.5 -2.5t-10.5 -2.5q-10 -2 -20 -3t-19 -1q-6 0 -15 1t-22 3q-13 1 -26 5.5t-27 13.5l-14 10t-13 11q-7 6 -13 14t-12 17l-2 2v-65v0v0zM147 247q0 -47 10 -82t29 -59q20 -24 45 -36t55 -12v0h1v0v0h0.5h1.5q26 0 49.5 12t45.5 36q21 23 32 61.5t11 90.5
q0 43 -9 78.5t-26 63.5q-18 28 -43.5 42t-59.5 14t-60.5 -14.5t-44.5 -43.5q-19 -28 -28 -66.5t-9 -86.5v2v0z" />
    <glyph glyph-name="c" unicode="c" horiz-adv-x="500" 
d="M404 190l87 -11q-6 -37 -16.5 -64t-27.5 -47q-16 -19 -33 -34t-35 -24q-16 -7 -31 -11t-29 -6q-15 -2 -25.5 -3.5t-18.5 -1.5q-64 0 -109.5 20t-72.5 62q-27 41 -40.5 87.5t-13.5 98.5q0 66 13.5 113.5t41.5 77.5t58.5 49t63.5 26q8 2 15.5 2.5t14.5 1.5q4 0 7.5 0.5
t7.5 0.5q3 1 6.5 1h7.5q9 0 19 -0.5t20 -2.5q11 -1 22 -4t23 -7q6 -2 12 -5t13 -6q6 -3 12 -6.5t12 -7.5q12 -8 22.5 -18.5t19.5 -23.5q8 -12 14 -23t9 -22q3 -10 5.5 -20t3.5 -18l-85 -11q-7 26 -18 46t-27 32t-34.5 18.5t-38.5 6.5q-33 0 -57.5 -9t-40.5 -27t-26.5 -37
t-15.5 -40q-3 -12 -5 -24t-3 -23t-1.5 -20.5t-0.5 -17.5v-15.5t1 -23.5q1 -13 4 -28t8 -30q6 -19 16.5 -37t25.5 -34t37.5 -24t52.5 -8q24 0 42.5 5.5t31.5 15.5q13 11 22.5 22.5t16.5 24.5q5 9 8 18t4 18q2 9 3 15.5t2 10.5v2v0z" />
    <glyph glyph-name="d" unicode="d" horiz-adv-x="556" 
d="M404 0v66h-2q-6 -11 -12.5 -20t-13.5 -16q-4 -3 -7.5 -6t-6.5 -6q-4 -3 -7.5 -5.5t-7.5 -4.5q-14 -7 -27.5 -11.5t-26.5 -5.5q-13 -2 -21 -2.5t-13 -0.5q-46 0 -85.5 17.5t-72.5 54.5q-33 36 -49 85.5t-16 111.5q0 63 15 113t46 86q30 36 69.5 54t88.5 18q24 0 45.5 -5
t39.5 -15t32 -23t24 -28l2 2v257h88v-716h-82v0v0zM126 259q0 -44 7 -76.5t20 -53.5q14 -21 29.5 -35.5t31.5 -22.5q7 -4 14 -6l14 -4q7 -1 13.5 -2t12.5 -1q5 0 11.5 1t15.5 2q9 2 19 6t20 10q14 8 26 22.5t23 33.5q11 20 17 49t6 67v3.5v2.5v4v4q-1 36 -10 69t-24 63
q-16 30 -43 45.5t-65 15.5q-28 0 -49.5 -8t-35.5 -25q-14 -16 -24 -33.5t-16 -36.5q-4 -15 -7 -29t-4 -28q-1 -13 -1.5 -23t-0.5 -16v2v0z" />
    <glyph glyph-name="e" unicode="e" horiz-adv-x="556" 
d="M424 167l90 -11q-10 -38 -28.5 -68.5t-46.5 -53.5q-28 -24 -66 -35t-86 -11q-61 0 -107 17.5t-78 54.5q-31 36 -47 84.5t-16 108.5q0 59 15.5 108.5t46.5 88.5t76 58.5t103 19.5q7 0 14.5 -0.5t14.5 -1.5q8 -1 15.5 -1.5t14.5 -2.5q33 -7 64 -26.5t59 -49.5
q28 -31 41.5 -80t13.5 -117v-2v-2v-1.5v-1.5v-2v-2v-1.5v-1.5l-388 2q2 -48 15 -82t37 -55t50.5 -31.5t55.5 -10.5q23 0 41.5 4.5t31.5 13.5q14 9 24.5 19.5t17.5 21.5q4 7 7 13.5t6 12.5t5.5 12t3.5 10v2v0zM134 309h293q-1 16 -4 31t-8 28q-5 14 -12.5 25t-16.5 21
q-9 9 -20 16.5t-25 13.5t-29 9t-31 3q-31 0 -56 -9.5t-42 -28.5q-18 -19 -29 -39t-16 -43l-2 -8t-1 -7q-1 -4 -1 -7.5v-6.5v2v0z" />
    <glyph glyph-name="f" unicode="f" 
d="M86 0v450h-78v68h78v56v12v15t1.5 17t4.5 18q4 17 13 32.5t24 29.5q14 14 39 21t61 7q11 0 21 -0.5t19 -1.5q5 -1 9 -1.5t8 -0.5q4 -1 7.5 -1.5t7.5 -1.5h0.5h1.5q1 -1 1.5 -1h1.5h1.5h1.5q0 -1 0.5 -1h1.5l-13 -75q-1 -2 -2 -2h-2h-1.5t-0.5 1h-1.5h-0.5q-5 1 -10 1.5
t-10 1.5h-5.5t-5.5 1h-6h-6q-25 0 -40.5 -6t-21.5 -18t-8.5 -24.5t-2.5 -26.5v-1.5v-1.5v-1.5v-0.5v-47h100v-68h-100v-450h-88v0v0z" />
    <glyph glyph-name="g" unicode="g" horiz-adv-x="556" 
d="M52 -43l85 -13q0 -3 1 -7l2 -8q1 -5 2.5 -9.5t4.5 -9.5q5 -9 13 -17.5t20 -15.5q12 -8 31.5 -11.5t44.5 -3.5q20 0 37.5 2.5t30.5 7.5q14 5 24.5 12t18.5 16q13 14 20.5 32t10.5 39q2 22 3.5 43.5t1.5 44.5v1.5v1.5v2v2l-2 2q-2 -4 -4.5 -7t-4.5 -5l-5.5 -5.5l-4.5 -4.5
q-4 -4 -8.5 -8t-9.5 -7q-14 -10 -28 -17t-28 -10q-13 -3 -26 -3.5t-24 -0.5q-55 0 -96.5 19t-70.5 58q-28 39 -42.5 85.5t-14.5 98.5v9.5v8.5q0 5 0.5 9.5t1.5 9.5q4 43 19 82.5t41 75.5t67 54t96 18q8 0 20 -1.5t28 -4.5q15 -3 31.5 -10.5t32.5 -20.5q2 -2 4.5 -4t5.5 -4
q2 -2 4.5 -4t4.5 -4q5 -4 9.5 -9.5t8.5 -11.5l2 2v62h81v-448v-10.5v-10.5q-1 -6 -1 -12v-12q0 -4 -0.5 -8.5t-0.5 -9.5q-1 -8 -2 -17l-2 -18l-2 -12l-2 -12q-2 -5 -3 -11t-3 -12q-3 -12 -7 -22t-9 -19q-13 -23 -31.5 -39.5t-41.5 -26.5q-23 -11 -47 -17.5t-48 -8.5h-4
t-4 -1h-5h-4h-4.5t-4.5 -1h-4h-4q-9 0 -19 0.5t-21 2.5l-12 2t-11 2l-12 2t-12 3q-22 7 -43 18.5t-39 28.5t-27 42.5t-9 60.5v1.5v0.5v0v0v1.5v0.5v0v0v1v0v0v0zM124 268v-13.5t1 -20.5q0 -12 2.5 -25.5t6.5 -27.5q2 -7 3.5 -14t4.5 -14t6.5 -13t7.5 -11q9 -13 21 -24
t26 -19t30 -12t33 -4q18 0 34.5 4t30.5 13q14 8 25 18.5t20 22.5q9 14 15.5 28t9.5 30t5 32.5t3 32.5v3.5v2.5v2v2v1v2q0 44 -8 76.5t-25 53.5q-16 21 -33.5 35t-37.5 21q-5 2 -10 2.5t-10 1.5t-10 1.5t-10 0.5q-29 0 -54 -12t-46 -36t-31 -59.5t-10 -82.5v2v0z" />
    <glyph glyph-name="h" unicode="h" horiz-adv-x="556" 
d="M67 0v716h88v-257q3 2 6.5 5.5l7.5 7.5q2 2 4 3.5t4 3.5l3 3t4 3q18 14 35.5 23t34.5 13q17 3 31 5t26 2h5.5h5.5q3 -1 6 -1h6q6 -1 12 -1.5t12 -2.5q16 -3 31.5 -9t30.5 -14t26.5 -19.5t19.5 -25.5q2 -4 3.5 -7.5t3.5 -6.5q1 -4 2.5 -7.5t2.5 -7.5t2 -7.5t2 -6.5
q1 -4 1.5 -7.5t1.5 -7.5t1.5 -9t1.5 -9q0 -5 0.5 -9.5t0.5 -9.5v-8.5t1 -9.5v-8v-8v-326h-88v327v3.5v5.5q-1 3 -1 6.5v7.5q-1 8 -2.5 16.5t-3.5 17.5q-4 13 -12.5 25t-19.5 22q-11 11 -28.5 16t-41.5 5q-19 0 -36 -4.5t-34 -13.5q-16 -9 -28 -20t-19 -24q-1 -3 -2.5 -6
t-3.5 -6q-1 -3 -2 -5.5t-2 -4.5q-4 -12 -6.5 -23t-3.5 -22t-1 -21.5v-20.5v-281h-88v0v0z" />
    <glyph glyph-name="i" unicode="i" horiz-adv-x="222" 
d="M67 0v518h88v-518h-88v0v0zM67 616v100h88v-100h-88v0v0z" />
    <glyph glyph-name="j" unicode="j" horiz-adv-x="222" 
d="M-45 -200l17 74q4 -1 7 -1.5t5 -1.5q3 0 5.5 -0.5t4.5 -1.5q3 0 5 -0.5t4 -0.5q2 -1 4.5 -1h5.5q18 0 29.5 6.5t15.5 20.5q5 13 7 33.5t2 46.5v544h88v-546v-6.5v-7.5q-1 -4 -1 -7.5v-7.5q0 -8 -0.5 -16t-1.5 -16q-3 -23 -10.5 -43t-20.5 -39t-37 -28.5t-60 -9.5h-3.5
h-5.5q-3 1 -6.5 1h-8.5q-8 1 -19 3t-24 5h-2v0zM67 616v100h88v-100h-88v0v0z" />
    <glyph glyph-name="k" unicode="k" horiz-adv-x="500" 
d="M66 0v716h88v-408l208 210h114l-198 -192l218 -326h-108l-172 265l-62 -59v-206h-88v0v0z" />
    <glyph glyph-name="l" unicode="l" horiz-adv-x="222" 
d="M67 0v716h88v-716h-88v0v0z" />
    <glyph glyph-name="m" unicode="m" horiz-adv-x="833" 
d="M65 0v518h79v-72h2q11 16 26 30.5t34 26.5q20 12 43.5 18.5t51.5 6.5t51 -6t42 -17q19 -12 32.5 -28.5t21.5 -39.5q2 4 5 8.5t7 9.5t8.5 10t10.5 11q9 9 21.5 18t28.5 17t35.5 12.5t43.5 4.5q35 0 60.5 -7.5t41.5 -21.5q17 -14 28.5 -30t18.5 -33q5 -13 7 -25t3 -23
t1.5 -19.5t0.5 -14.5v-354h-88v327v8.5v9.5t-0.5 11t-1.5 12q-1 15 -6.5 29.5t-14.5 27.5q-9 14 -26.5 20.5t-43.5 6.5h-3h-3q-2 -1 -3.5 -1h-3.5q-4 0 -7 -0.5t-6 -1.5q-12 -3 -23 -7.5t-22 -10.5q-10 -7 -18.5 -15t-14.5 -18q-4 -7 -7.5 -13.5t-5.5 -12.5t-3.5 -12
t-3.5 -11l-2 -12t-1 -12v-12.5v-13.5v-299h-88v337v3.5v4.5q-1 3 -1 5.5v5.5q0 6 -0.5 12t-2.5 12q-3 14 -9 26t-15 23t-24.5 17t-38.5 6q-18 0 -34 -4.5t-31 -12.5q-15 -9 -26 -19.5t-17 -23.5q-2 -4 -3.5 -8t-3.5 -8q-1 -4 -2.5 -7.5t-2.5 -6.5q-1 -6 -2.5 -12t-2.5 -11
l-2 -12t-1 -12q-1 -12 -1 -24v-24v-267h-88v0v0z" />
    <glyph glyph-name="n" unicode="n" horiz-adv-x="556" 
d="M68 0v518h79v-73h2q8 10 15.5 19t16.5 16q8 8 16.5 14t17.5 11q14 8 27.5 12.5t26.5 6.5q14 2 24.5 3t18.5 1q6 0 12 -0.5t12 -1.5t12.5 -1.5t13.5 -2.5q16 -4 31 -10t29 -14t25.5 -19.5t19.5 -26.5l2 -4l2 -4q0 -2 1 -4l2 -4q2 -4 3.5 -8t2.5 -7q2 -6 3.5 -12t2.5 -12
q1 -7 2 -13t1 -12v-12.5t1 -13.5v-14v-15v-317h-88v315v5v6q-1 3 -1 6.5v7.5q0 8 -0.5 15.5t-2.5 15.5q-4 15 -11 28.5t-18 26.5t-30 19.5t-45 6.5h-1.5h-0.5h-1.5h-1.5q-18 -1 -35 -5.5t-34 -13.5q-16 -9 -27.5 -20.5t-18.5 -25.5q-1 -1 -1.5 -2l-0.5 -1q-1 -1 -1 -2v-2
t-0.5 -2l-0.5 -1q-1 -1 -1.5 -2t-0.5 -2q-4 -12 -6.5 -24t-3.5 -24t-1.5 -23t-0.5 -21v-281h-88v0v0z" />
    <glyph glyph-name="o" unicode="o" horiz-adv-x="556" 
d="M35 259q0 9 0.5 19.5t1.5 22.5t3 24t5 25q2 6 3.5 12t3.5 12q2 5 4 11t5 12q5 12 12 23.5t15 21.5q14 18 31 32t36 24q20 10 40.5 16.5t41.5 10.5q5 0 10 0.5t10 1.5h5.5t5.5 1h4.5h5.5h6h7q3 -1 6.5 -1h6.5q6 -1 13 -1.5t14 -2.5q35 -7 67.5 -25.5t62.5 -48.5t45 -76
t15 -108q0 -37 -3.5 -65.5t-10.5 -49.5t-14 -37t-15 -27l-1.5 -1.5t-0.5 -1.5l-1.5 -1.5l-1.5 -1.5t-2 -2.5t-2 -3.5q-16 -19 -34.5 -34t-39.5 -26q-22 -10 -43.5 -15.5t-43.5 -8.5h-4t-4 -1h-4h-4h-4t-3 -1h-3.5h-3.5h-4.5h-4.5q-2 1 -4.5 1h-4.5h-4h-4q-3 1 -5 1h-4
q-22 3 -44 9t-43 16q-21 11 -38.5 25.5t-31.5 33.5q-6 7 -10.5 14.5t-8.5 14.5q-2 4 -3.5 8t-3.5 8q-1 3 -2.5 7t-3.5 8q-7 18 -10.5 35.5t-5.5 33.5q-1 17 -2 30.5t-1 23.5v2v0zM125 259q0 -44 7 -76.5t21 -53.5t30 -35.5t34 -22.5q8 -4 16 -6l16 -4q8 -1 15 -2t14 -1
q35 0 61.5 10.5t42.5 32.5q17 22 27.5 46t15.5 49q2 8 2.5 16.5t1.5 16.5q0 4 0.5 8t0.5 8q1 3 1 7v8q0 52 -12 89.5t-35 60.5q-24 23 -50.5 34.5t-55.5 11.5q-7 0 -13.5 -0.5t-14.5 -2.5q-7 -1 -14.5 -3.5t-15.5 -5.5q-18 -7 -34.5 -21.5t-31.5 -35.5t-22 -53.5t-7 -76.5v2
v0z" />
    <glyph glyph-name="p" unicode="p" horiz-adv-x="556" 
d="M68 -199v717h80v-67h2q2 1 4.5 5t5.5 8q2 2 3.5 4.5t3.5 5.5q3 2 5 4.5t5 4.5q8 8 19.5 16t26.5 15t34 10.5t41 3.5q55 0 96 -20t69 -59q27 -40 41 -87t14 -101q0 -69 -17.5 -120.5t-52.5 -85.5t-74 -50.5t-82 -16.5q-23 0 -43 5t-37 13q-17 10 -30.5 21.5t-23.5 24.5
l-2 2v-253h-88v0v0zM147 256q0 -49 8 -83.5t24 -55.5q16 -22 34 -35.5t37 -18.5q5 -1 9.5 -2.5t8.5 -1.5q5 -1 9.5 -1h8.5q6 0 12 0.5t13 1.5l14 4t14 5q17 8 32 22.5t29 36.5q14 21 21 54.5t7 78.5q0 50 -9.5 87t-29.5 59q-19 23 -40 35.5t-44 15.5h-2t-2 1h-2h-2h-2h-1h-2
h-2q-31 0 -57 -14t-46 -43q-20 -28 -30 -65.5t-10 -82.5v2v0z" />
    <glyph glyph-name="q" unicode="q" horiz-adv-x="556" 
d="M400 -199v254h-2q-10 -16 -23.5 -28t-30.5 -21q-18 -8 -37.5 -13t-42.5 -5q-44 0 -83 17t-74 53q-34 35 -51.5 86t-17.5 118q0 62 15 110.5t46 84.5q30 35 69.5 53t88.5 18q21 0 39 -3.5t32 -10.5t26 -14t21 -15q6 -6 11 -11.5t9 -10.5t7 -9t4 -7l2 2v69h80v-717h-88v0v0
zM128 261q0 -44 7 -77t20 -54q14 -22 29.5 -36.5t31.5 -22.5q4 -2 7.5 -3.5t7.5 -2.5q3 -1 6.5 -2t7.5 -2q7 -1 13.5 -2t12.5 -1q5 0 11.5 1t15.5 2q8 2 17 5.5t19 9.5q14 8 26.5 22.5t24.5 34.5q11 20 17 49t6 68q0 44 -9.5 80.5t-27.5 67.5q-18 30 -44.5 45.5t-61.5 15.5
q-30 0 -54 -12.5t-44 -37.5q-19 -25 -29 -62.5t-10 -87.5v2v0z" />
    <glyph glyph-name="r" unicode="r" horiz-adv-x="333" 
d="M64 0v518h80v-78h2q1 0 1.5 1t1.5 2q0 1 0.5 2.5t1.5 2.5q2 2 3.5 5t2.5 6q7 13 16 25t21 22q11 11 27 16.5t35 5.5q11 0 20.5 -1.5t18.5 -3.5q5 -1 9 -2.5t8 -2.5q3 -2 6.5 -3t6.5 -3t6 -3.5t6 -3.5q2 -1 4.5 -2.5t4.5 -2.5l-30 -79q-7 2 -15 5l-16 6t-16.5 4.5
t-16.5 1.5q-22 0 -38 -8t-27 -23q-10 -15 -17.5 -31.5t-11.5 -34.5q-2 -10 -3.5 -20t-1.5 -19q-1 -9 -1 -17v-15v-270h-88v0v0z" />
    <glyph glyph-name="s" unicode="s" horiz-adv-x="500" 
d="M31 155l87 13q3 -28 13 -48t26 -34q17 -14 40.5 -21t54.5 -7q27 0 47 4.5t33 13.5q14 9 22.5 19.5t12.5 21.5q1 3 1.5 6t1.5 6v3.5t1 2.5v3.5v2.5q0 16 -6 27.5t-18 18.5t-27.5 13t-35.5 11l-58 16q-3 -1 -6 -0.5t-5 1.5q-3 0 -6 0.5t-6 1.5q-6 2 -11.5 3.5t-10.5 3.5
q-25 8 -49 19t-45 26t-31.5 39.5t-10.5 57.5q0 30 12 56t36 48q24 23 60 34t83 11q42 0 73.5 -6.5t52.5 -18.5q21 -13 35.5 -26.5t23.5 -28.5q5 -10 9 -19t6 -18t3.5 -16t2.5 -12l-86 -10q-3 17 -9 30.5t-16 22.5t-20.5 15t-21.5 9q-7 2 -13 3l-12 2h-6t-6 1h-5.5h-4.5h-4.5
h-5.5q-3 -1 -6 -1h-6q-6 -1 -12.5 -1.5t-13.5 -2.5q-12 -3 -23 -7.5t-21 -11.5t-15 -18t-5 -25q0 -12 4 -21.5t11 -15.5q8 -7 20.5 -12.5t29.5 -10.5q6 -2 12.5 -4t13.5 -4t14.5 -4t16.5 -4q7 -2 13.5 -4t13.5 -4q7 -1 13.5 -2.5t12.5 -3.5q38 -10 67.5 -23t48.5 -28
q20 -15 30 -39t10 -59q0 -32 -13.5 -60.5t-40.5 -53.5t-65.5 -36.5t-88.5 -11.5q-46 0 -79.5 7t-56.5 21q-22 15 -38.5 31.5t-25.5 34.5q-5 10 -9 19.5t-6 18.5q-3 9 -4.5 17.5t-2.5 15.5v2v0z" />
    <glyph glyph-name="t" unicode="t" 
d="M257 79l12 -78q-1 -1 -2.5 -1h-3.5h-2t-1 -1q-1 0 -2 -0.5t-2 -0.5q-4 -1 -10 -1.5t-12 -1.5q-7 -1 -14.5 -1.5t-16.5 -0.5q-46 0 -72.5 11t-34.5 35q-7 23 -11 51t-4 60v300h-64v68h64v129l88 53v-182h88v-68h-88v-303q0 -17 1.5 -30t4.5 -24q3 -10 13.5 -15t29.5 -5
h10.5t10.5 1t9.5 1.5t8.5 1.5v2v0z" />
    <glyph glyph-name="u" unicode="u" horiz-adv-x="556" 
d="M408 0v76h-2q-7 -11 -13.5 -19.5t-13.5 -15.5t-14 -12.5t-14 -10.5q-16 -11 -32.5 -17t-31.5 -8t-26 -3.5t-18 -1.5h-5.5h-4.5q-3 1 -5.5 1h-5.5q-5 1 -10.5 1.5t-10.5 1.5q-17 4 -33.5 9t-31.5 14q-15 8 -26.5 20t-19.5 27q-1 2 -2.5 4.5t-2.5 5.5q-1 2 -2 4.5t-2 5.5
q-4 10 -7 21t-5 23q-1 12 -2 29.5t-1 39.5v323h88v-287q0 -34 1 -57t4 -37q2 -13 8 -24.5t15 -20.5q8 -7 17 -13t19 -10q11 -4 21.5 -5.5t21.5 -1.5q19 0 37 4.5t35 14.5q17 9 29.5 21.5t19.5 28.5q6 13 9.5 26.5t4.5 26.5q2 14 2.5 27.5t0.5 27.5v279h88v-518h-79v0v0z" />
    <glyph glyph-name="v" unicode="v" horiz-adv-x="500" 
d="M210 0l-197 518h93l111 -310q7 -20 12 -36t9 -28q3 -13 6 -23.5t5 -19.5l2 2q2 5 3.5 11t2.5 12l4 12l4 12q2 7 4.5 13.5t4.5 13.5q2 6 4.5 12t4.5 11l115 318h90l-196 -518h-82v0v0z" />
    <glyph glyph-name="w" unicode="w" horiz-adv-x="722" 
d="M164 0l-159 518h91l83 -299l6 -25q0 -4 1.5 -9t3.5 -13q2 -7 4.5 -15.5t5.5 -16.5v0v0v-1v0v0v0q1 -4 2 -8.5t2 -9.5q1 -2 1.5 -4t1.5 -4q0 -2 0.5 -3.5t1.5 -3.5l1 3.5t2 9.5q2 6 4 13.5t4 14.5v0v0v0v1v0v0q2 7 3.5 13.5t2.5 12.5q2 6 2.5 10t1.5 5v0.5t1 1.5v0.5v0.5
v0.5t1 1.5v0.5v1.5q0 3 0.5 5.5t1.5 4.5q0 2 0.5 4t1.5 3l83 305h90l77 -300v-2.5t1 -1.5v-1.5v-0.5v-1.5t1 -0.5v-1.5v-0.5v-0.5t1 -0.5v-1v0v-1.5t1 -0.5q1 -4 1.5 -8t1.5 -7l1.5 -6t1.5 -4q3 -11 5.5 -19.5t3.5 -13.5q2 -6 2.5 -10.5t1.5 -9.5v-0.5t1 -0.5v-1v0v-1.5
v-0.5v-1.5v-1.5v-0.5t1 -0.5v-1v0l2 2v-1v1v0.5t1 1.5v0.5v0.5v0l1 1v0v0v0v1v0v0q1 5 2.5 9.5t2.5 10.5q2 5 4.5 13t5.5 18v0.5t1 1.5v0.5v1.5q0 2 0.5 3.5t1.5 2.5q1 2 1.5 4.5t1.5 5.5q0 2 0.5 4.5t1.5 4.5q2 5 2.5 8t1.5 5l89 301h86l-163 -518h-91l-82 311
q0 -2 -0.5 0.5t-2.5 8.5q-1 6 -2.5 12.5t-3.5 13.5v0v1h-1v0v0v1v0v0q-1 3 -1.5 6t-0.5 5q-1 3 -1.5 5.5t-1.5 5.5q-1 5 -2 9t-1 6v0v1q-1 0 -1 0.5v0.5v0.5v1.5v1.5v1.5q-1 0 -1 0.5v1.5v1.5v1.5l-2 2l-103 -399h-92v0v0z" />
    <glyph glyph-name="x" unicode="x" horiz-adv-x="500" 
d="M7 0l190 270l-175 248h109l80 -121q7 -12 12 -20t8 -13t6 -9.5t5 -8.5v-0.5t1 -0.5v-1v0v0v0q0 -1 0.5 -1h0.5v-0.5t1 -0.5v-1.5v-0.5q0 -1 0.5 -1.5l1.5 -1.5q3 5 6 9.5l5 7.5t4.5 6t4.5 6v0v0v0v1h0.5h0.5q2 3 3.5 6t3.5 6t5 7t7 8l87 124h105l-179 -243l193 -275h-108
l-106 161q-1 -1 -1.5 0t-1.5 2t-1.5 2t-0.5 2q-1 1 -1.5 2t-1.5 2v0v0h-1v0v0.5v1.5h-0.5t-0.5 1h-1v0v0.5v1.5l-18 29l-136 -205h-107v0v0z" />
    <glyph glyph-name="y" unicode="y" horiz-adv-x="500" 
d="M62 -200l-9 83q2 -1 4.5 -1.5t5.5 -1.5q3 0 6 -0.5t6 -1.5q6 -2 13 -2.5t15 -0.5q20 0 34.5 4.5t23.5 13.5t17 21.5t15 29.5q1 2 1.5 4t1.5 4q1 3 1.5 5t1.5 4t1.5 4t1.5 4q1 3 1.5 5t1.5 4v0.5t1 0.5v1.5v0.5v0.5t1 0.5v1.5v0.5v0h1v1v0v0v0v1v0q1 2 1.5 4t1.5 4
q1 1 1.5 2.5t0.5 2.5l-197 519h95l108 -300q8 -23 14 -41.5t10 -33.5q5 -15 8 -26.5t5 -20.5l2 2q1 4 2 8.5t2 9.5q1 4 2.5 9t2.5 9q1 5 2.5 9.5t2.5 9.5q2 4 3.5 9t2.5 9q2 5 3.5 10.5t3.5 11.5q2 5 4 10.5t4 11.5l110 303h89l-198 -527q-1 -1 -1.5 -2.5t-0.5 -2.5
q-1 -2 -1.5 -4t-1.5 -4t-1.5 -3.5t-0.5 -2.5q-1 -2 -1.5 -3.5t-1.5 -2.5q-1 -2 -1.5 -3.5t-0.5 -3.5q-1 -1 -1.5 -3t-0.5 -3q-13 -34 -27.5 -62.5t-31.5 -52.5q-16 -24 -41.5 -36t-60.5 -12q-7 0 -13.5 0.5t-12.5 1.5q-3 1 -5.5 1.5t-5.5 0.5q-2 1 -4.5 1.5t-4.5 1.5
q-1 1 -2.5 1.5t-3.5 0.5h-1.5h-0.5q-1 1 -1.5 1h-1.5v0v0z" />
    <glyph glyph-name="z" unicode="z" horiz-adv-x="500" 
d="M20 0v71l330 378q-8 -2 -15 -3t-13 -1h-12h-11q-5 -1 -10.5 -1h-11.5h-12h-14l-212 2v72h424v-57l-281 -328q-1 -2 -3 -5t-6 -8q-2 -2 -4 -4.5t-4 -4.5q-3 -2 -5 -4.5t-4 -4.5v-0.5v-0.5h-1v0v0v0v-1v0q-2 -2 -4 -4.5t-4 -4.5l-4 -4l-4 -4l-1.5 -1.5l-0.5 -0.5l-1.5 -1.5
l-0.5 -0.5v0v0l-1 -1v0v0v0q-1 -1 -2 -2.5t-2 -2.5t-1.5 -2l-0.5 -1q6 0 15 0.5t20 1.5q11 0 22.5 0.5t23.5 1.5h7.5h7.5h7.5h7.5l240 2v-76h-459v0v0z" />
    <glyph glyph-name="braceleft" unicode="{" horiz-adv-x="334" 
d="M283 728h27v-76h-15q-24 -2 -40.5 -6.5t-25.5 -12.5q-9 -9 -13.5 -30t-4.5 -54q0 -67 -3.5 -116t-9.5 -79t-28.5 -54.5t-60.5 -42.5q32 -13 52.5 -33.5t30.5 -46.5q9 -27 14 -62t5 -79q0 -58 2.5 -94t7.5 -49q5 -14 24 -20.5t50 -6.5h15v-76h-27h-6h-7q-3 1 -6.5 1h-6.5
q-7 0 -14 0.5t-14 2.5q-9 1 -18 4t-18 8q-9 4 -16.5 11.5t-14.5 16.5q-12 16 -19.5 35.5t-9.5 40.5q-2 22 -3 51.5t-1 66.5v0v1v0v0v0.5v1.5q-1 36 -4.5 68t-9.5 60q-7 29 -28.5 43t-58.5 15v82q37 -1 58.5 13t28.5 42q6 28 9.5 60t4.5 69v0v1v0v0v0.5v1.5q0 38 1 68t3 52
t9.5 41t19.5 35q7 9 14.5 16.5t16.5 11.5q9 5 18 8t18 4q7 2 14 2.5t14 0.5h6.5t6.5 1h7h6v2v0z" />
    <glyph glyph-name="bar" unicode="|" horiz-adv-x="260" 
d="M92 750h76v-1000h-76v1000v0v0z" />
    <glyph glyph-name="braceright" unicode="}" horiz-adv-x="334" 
d="M51 -210h-27v76h15q24 0 40.5 4.5t25.5 12.5q9 9 13.5 30t4.5 54q0 66 3 114.5t10 78.5q6 30 28.5 54t60.5 43q-32 14 -53 33.5t-30 46.5q-10 26 -14.5 61.5t-4.5 79.5q0 59 -3 95.5t-8 49.5q-5 14 -23 20.5t-50 6.5l-15 2v76h27q6 -2 12.5 -2.5t13.5 -0.5t14 -0.5
t14 -2.5q5 -1 9 -2t9 -2q4 -2 8.5 -4t8.5 -4q9 -4 17 -11.5t15 -16.5q12 -16 19.5 -35.5t9.5 -40.5q2 -22 3 -52t1 -68q0 -37 3 -69t10 -61q6 -28 28.5 -43t59.5 -16v-78q-37 -2 -59 -16.5t-28 -42.5q-7 -28 -10.5 -60.5t-3.5 -68.5v-1.5v-0.5v0v0v-1v0v-1.5v-0.5v-1.5v-1.5
v-2v-2q-1 -35 -2.5 -63t-3.5 -49t-9 -39t-18 -34q-7 -9 -15 -16.5t-17 -11.5q-4 -2 -8.5 -4t-8.5 -4q-5 -1 -9 -2t-9 -2q-7 -2 -14 -2.5t-14 -0.5h-7.5t-6.5 -1h-6h-6v0v0z" />
    <glyph glyph-name="asciitilde" unicode="~" horiz-adv-x="584" 
d="M43 272v100q8 8 16.5 15.5t18.5 13.5t19.5 10.5t19.5 7.5l8 2l8 2q3 1 7 1.5t8 1.5q8 2 15.5 2.5t14.5 0.5q9 0 21 -1.5t28 -4.5q15 -3 36.5 -10t48.5 -18q1 -1 2.5 -1.5t4.5 -2.5l6 -2l6 -2v0v0v-1v0v0v0q2 -1 3.5 -1.5t2.5 -0.5q2 -1 3.5 -1.5t2.5 -1.5q3 -1 5 -2t3 -1
q2 -1 3.5 -1.5t3.5 -1.5t4 -1.5t5 -1.5q5 -1 10.5 -2.5t12.5 -3.5q6 -1 12.5 -2t13.5 -1q13 0 25 2.5t24 7.5q11 5 21.5 11t19.5 13q7 5 13 10.5t10 9.5l8.5 8.5l4.5 4.5v-101l-1.5 -3t-1.5 -2l-1.5 -1.5t-1.5 -0.5q-10 -10 -23.5 -18.5t-28.5 -16.5t-34.5 -12t-42.5 -4
q-8 0 -15.5 0.5t-15.5 1.5q-7 1 -14 2.5t-14 3.5t-14.5 4t-15.5 5q-7 3 -14.5 6t-15.5 7q-1 0 -2 0.5l-3 1.5t-4.5 2t-4.5 2v0v0h-1v0v0v1v0v0q-3 1 -5 2l-4 2t-3.5 1.5t-2.5 0.5q-2 1 -4.5 2t-5.5 2q-1 1 -2.5 1.5t-3.5 1.5q-1 0 -2.5 0.5t-3.5 1.5q-6 2 -12.5 4t-14.5 4
q-4 1 -8 1.5t-7 1.5q-4 1 -8 1.5t-8 0.5h-2h-2h-2h-2q-19 0 -35 -4.5t-30 -12.5q-13 -8 -25 -17t-23 -19l-2 -2t-2 -1l-2 -2l-2 -2l-2.5 -2.5l-3.5 -3.5v2v0z" />
    <glyph glyph-name="exclamdown" unicode="&#xa1;" horiz-adv-x="333" 
d="M194 340l27 -379v-159h-109v159l25 379h57v0v0zM217 518v-100h-100v100h100v0v0z" />
    <glyph glyph-name="cent" unicode="&#xa2;" horiz-adv-x="556" 
d="M366 436l-109 -374q1 -2 1.5 -2.5t1.5 -0.5h1h2q2 -1 4.5 -1.5t5.5 -0.5q3 -1 6.5 -1h7.5h1.5h1.5h2h2q21 2 41 10t39 24q18 16 30 40.5t16 57.5l87 -8q-7 -38 -19.5 -67.5t-30.5 -49.5t-37.5 -34.5t-39.5 -23.5q-13 -4 -25 -7.5t-24 -5.5t-23 -3.5t-20 -1.5t-16 0.5
t-13 1.5t-11 2l-10 2l-57 -193l-55 16l56 194q-28 12 -51 34t-41 53q-18 32 -26.5 71t-8.5 86q0 56 9.5 98t28.5 70q20 29 41 49t45 32q15 8 30 13t29 8q14 2 25.5 3.5t20.5 1.5h2.5h3.5q2 -1 4 -1h5q5 0 13.5 -0.5t20.5 -2.5l56 191l53 -16l-54 -189q15 -8 27.5 -16
t22.5 -17q5 -4 9.5 -9t8.5 -9q4 -5 7.5 -9.5t6.5 -9.5q7 -11 11.5 -21.5t7.5 -21.5q3 -10 5.5 -19t3.5 -15l-86 -11q-1 4 -3 9.5t-4 12.5q-2 8 -5.5 15.5t-8.5 15.5q-2 3 -5 6.5t-6 7.5l-6.5 6.5l-7.5 7.5v2v0zM205 86l109 373q-1 -2 -2.5 -2h-3.5h-1.5t-0.5 1h-1.5h-0.5
h-1.5h-0.5h-1.5h-1.5h-1.5h-0.5h-1.5h-1.5q-34 0 -59.5 -9.5t-40.5 -29.5q-16 -19 -26 -40t-15 -44q-3 -10 -4.5 -20t-2.5 -20t-1 -19v-17q0 -7 0.5 -16.5t1.5 -21.5t3 -26t6 -30q0 -3 1 -6l2 -6q0 -1 0.5 -2.5t1.5 -2.5q0 -2 0.5 -3l1.5 -3q3 -8 7 -15.5t9 -15.5
q5 -7 11.5 -14t14.5 -13v2v0z" />
    <glyph glyph-name="sterling" unicode="&#xa3;" horiz-adv-x="556" 
d="M196 395h153v-72h-133q0 -5 0.5 -8.5t1.5 -6.5q0 -1 0.5 -3t0.5 -3q1 -2 1 -3.5v-3.5v-2.5t1 -2.5v-2v-2v-4v-4q0 -27 -6.5 -52t-19.5 -48q-13 -24 -28.5 -45t-33.5 -40h2q0 -1 1 -1h2h0.5t1.5 1h0.5h0.5q5 2 12 3.5t14 2.5q8 2 17 2.5t19 0.5q7 0 16 -0.5t21 -1.5
t25.5 -3.5t29.5 -6.5q2 -1 6 -1.5t10 -2.5q5 -1 11.5 -2.5t13.5 -3.5q2 -1 4.5 -1.5t5.5 -0.5q2 0 3 -0.5t3 -0.5q1 -1 2.5 -1h2.5q8 -1 14.5 -2t13.5 -2t13 -1.5t10 -0.5h4.5h4.5t4.5 0.5t5.5 1.5q3 0 6 0.5t7 0.5l6 2l6 2l6 2l6 2q2 1 5 2l6 2l4 2l4 2q1 0 3 1l4 2
t3.5 1.5t2.5 1.5q2 0 3.5 0.5t2.5 1.5l29 -79q-7 -5 -14.5 -8t-14.5 -5q-7 -3 -13.5 -4.5t-13.5 -2.5l-8 -2t-7 -2q-4 -1 -8 -1.5t-8 -1.5q-7 -2 -15.5 -2.5t-16.5 -0.5q-10 0 -20 0.5t-18 2.5q-4 1 -8.5 2t-7.5 1q-4 1 -7.5 2t-6.5 2l-73 22q-4 0 -8.5 1t-8.5 2q-5 0 -9 1
t-9 2q-9 2 -18.5 3t-20.5 1q-7 0 -13.5 -0.5t-13.5 -1.5t-13.5 -1.5t-12.5 -2.5q-13 -3 -25.5 -7t-24.5 -9q-12 -4 -23 -9.5t-22 -12.5l-34 85q4 1 9.5 4t12.5 8q8 5 15.5 11.5t14.5 14.5q11 11 21.5 26t19.5 34t14 41.5t5 49.5q0 11 -0.5 19t-1.5 15q-1 3 -1.5 6t-0.5 6
q-1 3 -1.5 6t-1.5 6v0v1h-1v0v0.5v1.5l-95 2v72h75q-6 17 -10.5 33t-7.5 29q-3 14 -4.5 26t-2.5 24v2v2v1v2v4v4q0 50 16.5 88t49.5 63t69 38.5t76 14.5h1.5h1.5h0.5h1.5h3.5h2.5q31 0 60 -7.5t56 -21.5t47 -35.5t33 -50.5q5 -11 8.5 -21t5.5 -19t3.5 -16.5t2.5 -13.5
l-88 -11q-4 29 -15 52.5t-30 39.5t-40.5 24t-44.5 8q-28 0 -51 -9t-40 -27q-16 -18 -25 -37.5t-10 -40.5v-2v-2v-1.5v-0.5v-5.5v-4.5v-5.5t1 -4.5q1 -14 3 -28t5 -28q3 -13 6.5 -26t7.5 -25q0 -1 0.5 -2t1.5 -1q0 -1 0.5 -2t0.5 -2q0 -2 0.5 -3.5t1.5 -3.5v2v0z" />
    <glyph glyph-name="currency" unicode="&#xa4;" horiz-adv-x="556" 
d="M106 469l-68 67l56 58l68 -68q7 3 14 6.5t14 7.5q8 3 15.5 6t14.5 5q4 1 7.5 1.5t7.5 1.5q3 1 6.5 1.5t7.5 1.5q4 0 7.5 0.5t7.5 0.5q3 1 6.5 1h7.5q7 0 14 -0.5t14 -1.5q8 -1 15.5 -2.5t14.5 -3.5q4 -1 7.5 -2.5t7.5 -2.5q3 -2 6.5 -3t7.5 -3t7.5 -4t7.5 -4q3 -2 6.5 -4
t7.5 -4l68 70l56 -58l-68 -67q11 -19 18.5 -35.5t10.5 -31.5t4.5 -27.5t1.5 -22.5t-1.5 -22.5t-4.5 -27.5t-10.5 -31.5t-18.5 -33.5l68 -64l-56 -58l-68 68q-4 -4 -7.5 -6t-6.5 -5q-4 -2 -7.5 -3.5t-7.5 -3.5t-7.5 -3.5t-6.5 -3.5q-4 -1 -7.5 -2t-7.5 -2q-7 -2 -14.5 -3.5
t-15.5 -2.5q-7 -1 -14 -1.5t-14 -0.5h-7.5h-6.5q-4 0 -7.5 0.5t-7.5 1.5q-4 0 -7.5 1t-6.5 1q-4 1 -7.5 2t-7.5 2q-7 2 -14.5 4.5t-15.5 6.5q-7 3 -14 7.5t-14 8.5l-68 -66l-56 58l68 66q-11 16 -18.5 32t-10.5 31t-4.5 27.5t-1.5 22.5t1.5 22.5t4.5 27.5t10.5 31.5
t18.5 33.5v2v0zM278 481q-26 -2 -48.5 -11.5t-41.5 -27.5t-28 -40.5t-9 -48.5t9 -48.5t28 -41.5t41.5 -28t48.5 -9t48.5 9t41.5 28q18 19 27.5 41.5t9.5 48.5q0 27 -9.5 49.5t-29.5 40.5q-19 18 -41.5 27t-46.5 9v2v0z" />
    <glyph glyph-name="yen" unicode="&#xa5;" horiz-adv-x="556" 
d="M235 0v165h-203v68h203v88h-203v68h156l-187 327h98l141 -252q5 -11 10.5 -20.5t9.5 -18.5q5 -9 9 -18.5t8 -19.5q1 2 1.5 3.5t1.5 2.5q0 2 0.5 3.5t1.5 2.5l1.5 3l1.5 3q1 1 1.5 2.5t1.5 2.5q3 6 6 12.5t7 13.5q3 6 7.5 13.5t8.5 16.5l134 250h104l-186 -327h155v-68
h-201v-88h201v-68h-201v-165h-88v0v0z" />
    <glyph glyph-name="brokenbar" unicode="&#xa6;" 
 />
    <glyph glyph-name="section" unicode="&#xa7;" horiz-adv-x="556" 
d="M72 -34l88 12q1 -5 2.5 -10t2.5 -11q2 -6 3.5 -12t4.5 -12q5 -13 14 -25t22 -22q12 -11 31.5 -16.5t44.5 -5.5q21 0 37.5 4.5t28.5 12.5q11 8 19.5 17t12.5 19q2 4 3.5 8.5t2.5 8.5t1.5 8t0.5 7q0 7 -2 15.5t-6 16.5t-12 16.5t-22 18.5q-9 7 -21 16t-28 20t-39 26t-53 34
q-3 2 -5.5 3.5t-4.5 2.5q-3 2 -5.5 3.5t-4.5 2.5q-28 17 -53 36t-48 41q-22 22 -33.5 49.5t-11.5 61.5v4v4v4t1 4q2 20 10 38t21 35q14 17 33.5 29.5t44.5 20.5q-2 2 -4.5 4t-4.5 4l-4 4l-4 4q-9 9 -17 19.5t-16 23.5q-7 13 -11 28.5t-4 33.5q0 5 0.5 10.5t1.5 11.5t2.5 12
t3.5 12q7 20 21 38.5t35 35.5t50 25.5t66 8.5q8 0 18 -0.5t21 -2.5q11 -1 22 -3.5t23 -5.5q15 -5 29.5 -12.5t28.5 -18.5q14 -10 25 -25t20 -35q5 -10 8 -20t4 -18q2 -8 3 -15t2 -13l-91 -8q-1 3 -2 7.5t-2 9.5t-2.5 10.5t-3.5 11.5q-4 12 -11.5 23.5t-18.5 21.5
q-10 11 -26 16t-39 5t-41 -6.5t-32 -18.5q-13 -12 -20 -25.5t-7 -27.5v-4.5v-4.5t0.5 -4t1.5 -4q2 -7 5 -13.5t7 -12.5q5 -7 12 -13.5t17 -14.5l2 -2l2 -2q1 0 1.5 -0.5t1.5 -0.5q0 -1 0.5 -1.5t1.5 -0.5q10 -7 21 -15.5t24 -17.5t30.5 -19.5t39.5 -23.5q5 -3 9 -6t9 -5
q4 -3 8.5 -5.5t8.5 -5.5q9 -5 17.5 -10t15.5 -10q23 -16 42 -33t33 -34q14 -18 21 -40t7 -48q0 -25 -6 -44.5t-17 -33.5t-23 -24.5t-25 -18.5q-6 -3 -11.5 -6t-10.5 -5t-9.5 -4t-9.5 -4q3 -2 7 -5t9 -8q5 -4 10 -9.5t10 -11.5q8 -9 15 -19.5t14 -23.5q6 -11 9.5 -26t3.5 -32
q0 -34 -13.5 -62.5t-39.5 -51.5q-27 -23 -62 -34.5t-79 -11.5q-40 0 -75 10.5t-65 30.5q-31 20 -49 54t-24 81v0v0zM357 119q10 4 18.5 9t15.5 11t12.5 12t9.5 12l4 6l4 6q1 2 2 5l2 6q2 6 3 11.5t1 10.5q0 12 -3.5 23.5t-11.5 21.5q-7 11 -17.5 21.5t-23.5 20.5
q-8 6 -17 12.5t-19 13.5t-21 14l-22 14q-16 10 -30.5 19t-26.5 17t-22.5 16.5t-19.5 15.5q-1 -1 -3 -2t-3 -2q-2 -1 -3.5 -2t-3.5 -2q-4 -2 -7.5 -4.5t-7.5 -4.5q-9 -6 -16.5 -14t-15.5 -17q-7 -10 -10.5 -21.5t-3.5 -25.5q0 -12 2.5 -22.5t8.5 -19.5q5 -9 13.5 -18
t18.5 -18q8 -7 16.5 -14t18.5 -13q11 -7 22 -13.5t24 -14.5q24 -14 42.5 -25.5t30.5 -19.5t22 -15t17 -12v2v0z" />
    <glyph glyph-name="dieresis" unicode="&#xa8;" horiz-adv-x="333" 
d="M31 611v100h90v-100h-90v0v0zM212 611v100h90v-100h-90v0v0z" />
    <glyph glyph-name="copyright" unicode="&#xa9;" horiz-adv-x="737" 
d="M369 728q76 -2 141 -29t119 -81t81 -118.5t27 -141.5q0 -76 -27 -141t-81 -119t-118.5 -80.5t-141.5 -26.5q-76 0 -141.5 26t-119.5 80t-81 119.5t-27 141.5q0 77 27 142t82 119q54 53 119 80t141 27v2v0zM368 667q-64 -2 -118 -24.5t-99 -67.5t-67.5 -99t-22.5 -118
t22.5 -118.5t67.5 -99.5t99 -67.5t118 -22.5t118.5 22.5t99.5 67.5t67.5 99.5t22.5 118.5t-22.5 118t-67.5 99t-99.5 67.5t-118.5 22.5v2v0zM487 300l60 -18q-8 -35 -24.5 -60.5t-41.5 -42.5q-25 -16 -51.5 -24.5t-55.5 -8.5h-1.5h-0.5h-1.5h-0.5q-43 0 -78 13.5t-62 41.5
t-40.5 67t-13.5 89q0 47 13 85t39 66t62.5 42t82.5 14q29 0 54.5 -7t48.5 -21q23 -13 39 -35t25 -52l-58 -12q-4 10 -10 19.5t-13 16.5q-7 8 -13.5 13.5t-14.5 9.5q-10 5 -19 8t-17 4q-9 1 -15 1.5t-9 0.5q-32 0 -55.5 -10.5t-37.5 -31.5q-15 -21 -23.5 -43.5t-10.5 -47.5
v-2.5v-3.5q-1 -1 -1 -2.5v-3.5v-5.5v-4.5q0 -39 9 -68t27 -47t40 -27t47 -9q5 0 11 0.5t14 1.5q8 2 16.5 5t17.5 7q9 5 18 11.5t18 16.5q9 9 15.5 22.5t10.5 29.5v2v0z" />
    <glyph glyph-name="ordfeminine" unicode="&#xaa;" horiz-adv-x="370" 
d="M101 610l-67 17q0 2 1 6.5t2 8.5q2 5 3.5 9.5t4.5 8.5q6 12 17 23.5t27 21.5q16 11 39.5 16t54.5 5h4.5h5.5h4.5h5.5q23 -1 45 -7.5t41 -17.5q20 -11 30 -34.5t10 -58.5v-116q0 -22 0.5 -40t1.5 -33q2 -16 6 -28t11 -20l-72 2q-1 -1 -1.5 0t-0.5 2q-1 1 -1 2v2
q-1 3 -2.5 7t-2.5 8q-1 5 -1.5 9.5t-0.5 10.5l-1.5 -1.5l-1.5 -1.5t-2 -1.5l-1 -0.5q-11 -9 -24.5 -17t-28.5 -16q-15 -7 -31.5 -10.5t-34.5 -3.5h-9.5t-10.5 1q-6 1 -11.5 2.5t-10.5 2.5q-15 4 -28.5 11.5t-25.5 19.5t-18 29.5t-6 40.5q0 25 7 42.5t21 27.5q14 11 29.5 18
t31.5 11q3 1 6 1.5t6 0.5q2 1 5 1.5t6 0.5q6 1 11.5 2t10.5 2h3.5t2.5 1h3.5h2.5q3 0 6 0.5t6 1.5q3 0 6 0.5t6 1.5h3.5t3.5 1q1 0 3 0.5t3 0.5q6 1 12.5 2t13.5 2q7 2 14.5 3.5t14.5 3.5v4v4v2v3q-1 1 -1 2.5v2.5q-1 11 -4.5 20.5t-10.5 18.5t-22.5 13.5t-38.5 4.5h-4.5
h-4.5h-2.5h-2.5q-1 -1 -2 -1h-2q-10 -1 -20.5 -5t-19.5 -10t-15 -17t-8 -28v2v0zM258 539q-2 -2 -4.5 -3t-5.5 -2q-1 0 -2.5 -0.5t-2.5 -0.5q-2 -1 -3 -1h-3q-6 -1 -12.5 -2.5t-14.5 -3.5q-7 -1 -14.5 -2t-15.5 -2q-2 -1 -4 -1.5t-4 -0.5h-2.5h-3.5q-19 -3 -33 -7t-22 -9
q-9 -4 -13 -13t-4 -23q0 -12 4.5 -20.5t14.5 -14.5q9 -6 20 -9t24 -3h0.5h1.5h0.5h1.5q15 0 29 4.5t27 13.5q14 8 23 19.5t14 26.5v0.5v1.5l0.5 0.5l1.5 1.5v3.5t1 3.5v4v4v5.5t1 7.5v9v11v2v0z" />
    <glyph glyph-name="guillemotleft" unicode="&#xab;" horiz-adv-x="556" 
d="M169 258l127 -223h-72l-155 223l155 223h72l-127 -223v0v0zM360 258l127 -223h-72l-155 223l155 223h72l-127 -223v0v0z" />
    <glyph glyph-name="logicalnot" unicode="&#xac;" 
 />
    <glyph glyph-name="sfthyphen" unicode="&#xad;" horiz-adv-x="500" 
 />
    <glyph glyph-name="registered" unicode="&#xae;" horiz-adv-x="737" 
d="M369 728q76 -2 141 -29t119 -81t81 -118.5t27 -141.5q0 -76 -27 -141t-81 -119t-118.5 -80.5t-141.5 -26.5q-76 0 -141.5 26t-119.5 80t-81 119.5t-27 141.5q0 77 27 142t82 119q54 53 119 80t141 27v2v0zM368 667q-64 -2 -118 -24.5t-99 -67.5t-67.5 -99t-22.5 -118
t22.5 -118.5t67.5 -99.5t99 -67.5t118 -22.5t118.5 22.5t99.5 67.5t67.5 99.5t22.5 118.5t-22.5 118t-67.5 99t-99.5 67.5t-118.5 22.5v2v0zM207 156v396h137q4 -2 8 -2h8h9.5h8.5q14 -1 26.5 -2.5t25.5 -4.5t24 -8t21 -13q8 -7 15 -15.5t12 -19.5q5 -10 8 -21t3 -23v-4
t-1 -4q0 -3 -0.5 -5t-0.5 -4t-0.5 -4t-1.5 -4q0 -3 -0.5 -5t-1.5 -4q-4 -13 -13 -26t-22 -25t-31 -18t-41 -8v0l1.5 -3t1.5 -1h1.5h1.5q8 -4 16.5 -10t17.5 -15t22.5 -27t29.5 -45l48 -75h-78l-35 62q-9 14 -16.5 26.5l-13.5 22.5q-7 10 -13 18t-12 14q-4 3 -7.5 5.5
t-6.5 5.5q-4 2 -7.5 4t-7.5 3q-7 2 -15.5 3.5t-18.5 1.5l-38 2v-168h-64v0v0zM271 498v-119h78q4 -2 8.5 -2h9.5t11 1l12 2q10 2 19 5.5t18 9.5t13.5 16.5t4.5 25.5q0 16 -5 26.5t-16 16.5q-10 6 -21.5 10t-23.5 5h-4.5t-4.5 1h-4.5h-4.5h-8.5h-8.5l-73 2v0v0z" />
    <glyph glyph-name="overstore" unicode="&#xaf;" 
 />
    <glyph glyph-name="glyph113" unicode="&#xb0;" 
 />
    <glyph glyph-name="plusminus" unicode="&#xb1;" horiz-adv-x="584" 
d="M529 0h-474v82h474v-82v0v0zM251 137v196h-196v82h196v196h82v-196h196v-82h-196v-196h-82v0v0z" />
    <glyph glyph-name="twosuperior" unicode="&#xb2;" 
 />
    <glyph glyph-name="threesuperior" unicode="&#xb3;" 
 />
    <glyph glyph-name="acute" unicode="&#xb4;" horiz-adv-x="333" 
d="M111 591l65 137h115l-108 -137h-72v0v0z" />
    <glyph glyph-name="mu" unicode="&#xb5;" horiz-adv-x="556" 
d="M488 518v-518h-78v61h-2q-2 -5 -4.5 -8.5t-4.5 -6.5q-2 -4 -4.5 -7.5t-5.5 -6.5q-7 -9 -17 -16.5t-23 -14.5q-13 -6 -30 -9.5t-39 -3.5t-40 3.5t-30 9.5q-13 8 -22.5 16t-17.5 17q-1 2 -2.5 4t-3.5 4q-1 2 -2.5 4t-3.5 4l-2 2v-251h-89v717h88v-219q0 -29 0.5 -54
t1.5 -46q2 -21 5.5 -38t10.5 -30q7 -14 17 -26t23 -21q13 -10 28.5 -14.5t34.5 -4.5q5 0 11.5 1t13.5 2q8 2 15.5 4t14.5 6q7 3 13.5 7.5t12.5 10.5q6 5 12 12t11 16q8 12 12 28.5t5 36.5q2 20 2.5 46.5t0.5 60.5v222h88v0v0z" />
    <glyph glyph-name="paragraph" unicode="&#xb6;" horiz-adv-x="537" 
d="M196 -199v510q-51 1 -88 17t-61 46q-24 29 -35.5 63t-11.5 71q0 50 15.5 88t46.5 65q31 26 69 39.5t84 13.5l324 2v-85h-70v-830h-82v830h-109v-830h-82v0v0z" />
    <glyph glyph-name="middot" unicode="&#xb7;" 
 />
    <glyph glyph-name="cedilla" unicode="&#xb8;" horiz-adv-x="333" 
d="M105 -75l26 86h65l-16 -52q17 -2 31 -7.5t27 -14.5q12 -9 18.5 -21.5t6.5 -28.5q0 -17 -8.5 -33t-25.5 -30t-44 -21.5t-63 -7.5h-4h-4h-5h-4h-4.5h-4.5q-2 1 -4.5 1h-4.5q-4 1 -8.5 1.5t-9.5 0.5q-4 0 -8.5 0.5t-8.5 1.5l5 57h6h7t7.5 -0.5t7.5 -1.5h4.5h4.5h4.5h4.5h2.5
h3.5q2 1 4 1h5q5 0 11 0.5t12 1.5q8 1 14.5 4t13.5 7q6 4 9.5 9.5t3.5 13.5t-3.5 14t-11.5 9q-7 4 -15 6t-16 3q-2 0 -4 0.5t-4 0.5h-5h-4h-7.5h-6.5v0v0z" />
    <glyph glyph-name="onesuperior" unicode="&#xb9;" 
 />
    <glyph glyph-name="ordmasculine" unicode="&#xba;" horiz-adv-x="365" 
d="M182 728q35 -2 61 -11.5t44 -29.5q18 -19 30 -40t18 -44q2 -8 3.5 -15.5t2.5 -15.5q1 -7 1.5 -14.5t0.5 -14.5t-0.5 -13.5t-1.5 -14.5q-1 -7 -2 -14.5t-3 -14.5q-6 -24 -18 -46t-30 -42q-18 -19 -44 -29t-61 -10q-40 0 -70.5 13.5t-50.5 40.5t-30 58.5t-10 68.5v12t1 12
q0 3 0.5 6t0.5 7q1 3 1.5 6t1.5 6q5 26 16.5 49.5t29.5 44.5t45 32t64 11v2v0zM182 663q-19 -2 -33.5 -7t-23.5 -16q-9 -10 -15 -21.5t-9 -23.5q-2 -7 -3.5 -14.5t-1.5 -15.5q-1 -7 -1 -12.5v-10.5v-9t1 -14q0 -8 2 -16.5t5 -17.5q3 -12 9.5 -22.5t15.5 -19.5
q9 -10 22.5 -14.5t31.5 -4.5q20 0 34 5t23 15q9 11 15.5 22t9.5 23l2 8l2 8q0 3 0.5 7t0.5 8v7.5t1 6.5v6v5v4v4q-1 3 -1 6.5v7.5q-1 8 -2.5 16.5t-4.5 18.5q-4 11 -10.5 21t-15.5 19t-22.5 14t-31.5 5v2v0z" />
    <glyph glyph-name="guillemotright" unicode="&#xbb;" horiz-adv-x="556" 
d="M196 258l-127 223h72l155 -223l-155 -223h-72l127 223v0v0zM387 258l-127 223h72l155 -223l-155 -223h-72l127 223v0v0z" />
    <glyph glyph-name="onequarter" unicode="&#xbc;" 
 />
    <glyph glyph-name="onehalf" unicode="&#xbd;" horiz-adv-x="834" 
d="M111 -25l538 757h76l-537 -757h-77v0v0zM586 239l-74 7l2.5 7.5l3.5 10.5t4.5 12t6.5 12q6 11 17 21.5t26 20.5t37 15t52 5q3 0 10 -0.5t17 -1.5t20.5 -3t22.5 -5q14 -4 26 -11t24 -18q11 -10 17 -25t6 -35q0 -16 -4 -31t-12 -28q-7 -13 -18 -25.5t-25 -24.5
q-6 -6 -12.5 -11t-13.5 -10t-13.5 -10.5t-14.5 -10.5l-31 -20q-8 -7 -14 -12t-10 -8q-4 -4 -7.5 -7t-6.5 -6v0v0l-1 -1v0v0v0l-1.5 -1.5l-0.5 -0.5l-1.5 -1.5l-0.5 -0.5l189 2v-59h-304q2 19 12.5 38t28.5 38q18 18 39 36t46 36q20 14 35.5 25.5t25.5 20.5q11 8 19 16.5
t12 15.5q1 2 1.5 3.5t1.5 3.5q1 1 1.5 3t0.5 3q1 3 1.5 6.5t0.5 7.5q0 13 -4.5 23t-13.5 17t-21.5 10.5t-27.5 3.5q-21 0 -34.5 -4.5t-19.5 -12.5q-7 -9 -12 -18t-8 -20v2v0zM171 358v271q-9 -9 -19 -16.5t-21 -13.5t-22 -11t-22 -9q-4 -1 -7 -2l-6 -2l-6 -2l-6 -2v63
q6 1 13.5 3.5t15.5 6.5q8 5 17 10t18 11q8 6 16.5 12.5t16.5 13.5l15.5 15.5t14.5 16.5l53 2v-367h-71v0v0z" />
    <glyph glyph-name="threequarters" unicode="&#xbe;" 
 />
    <glyph glyph-name="questiondown" unicode="&#xbf;" horiz-adv-x="611" 
d="M447 7l90 -10q-1 -7 -2 -15t-3 -18q-1 -9 -5 -20t-9 -23q-10 -22 -22 -39.5t-26 -30.5q-7 -6 -14.5 -12t-14.5 -11q-8 -4 -15 -8.5t-15 -7.5q-15 -7 -30 -11.5t-29 -6.5t-26 -3t-21 -1q-51 0 -92.5 14t-73.5 42t-48 62.5t-16 76.5q0 23 5 43.5t15 38.5q11 18 24.5 35
t30.5 33q3 4 7 7.5t8 7.5q5 4 9.5 8t8.5 8q9 8 16.5 15t14.5 14q3 3 6.5 6t6.5 7q3 3 5.5 6t4.5 6q8 11 13.5 22.5t8.5 24.5t4.5 31t2.5 42l84 2v-3.5v-2.5v-2v-2v-1.5v-0.5v-1.5t1 -0.5v-2.5v-3.5v-2.5v-3.5q-1 -27 -4 -48.5t-9 -38.5q-6 -16 -15 -32t-22 -30
q-6 -7 -13 -14.5t-15 -15.5q-8 -7 -17 -15.5t-19 -16.5q-4 -4 -8.5 -8t-8.5 -7q-4 -4 -8 -7.5t-7 -6.5q-9 -10 -16.5 -19.5t-12.5 -20.5q-6 -10 -8.5 -21.5t-2.5 -23.5q0 -25 10 -47.5t29 -41.5q20 -20 45 -30t55 -10q32 0 57 10.5t42 30.5t28 45.5t16 56.5v2v0zM356 518
v-100h-100v100h100v0v0z" />
    <glyph glyph-name="Agrave" unicode="&#xc0;" horiz-adv-x="667" 
d="M-1 0l275 716h102l292 -716h-107l-84 218h-299l-79 -218h-100v0v0zM284 504l-79 -211h243l-75 199q-1 0 -1.5 1.5t-0.5 2.5q-1 2 -1.5 3.5t-1.5 2.5q-1 2 -1.5 3.5t-0.5 3.5q-1 1 -1.5 3t-0.5 3q-6 14 -11 28.5t-10 29.5t-9.5 31.5t-9.5 34.5l-2 2q-4 -19 -7.5 -36.5
t-8.5 -34.5q-4 -17 -10 -34l-12 -34v2v0zM324 898l65 -137h-72l-108 137h115v0v0z" />
    <glyph glyph-name="Aacute" unicode="&#xc1;" horiz-adv-x="667" 
d="M-1 0l275 716h102l292 -716h-107l-84 218h-299l-79 -218h-100v0v0zM284 504l-79 -211h243l-75 199q-1 0 -1.5 1.5t-0.5 2.5q-1 2 -1.5 3.5t-1.5 2.5q-1 2 -1.5 3.5t-0.5 3.5q-1 1 -1.5 3t-0.5 3q-6 14 -11 28.5t-10 29.5t-9.5 31.5t-9.5 34.5l-2 2q-4 -19 -7.5 -36.5
t-8.5 -34.5q-4 -17 -10 -34l-12 -34v2v0zM268 761l65 137h115l-108 -137h-72v0v0z" />
    <glyph glyph-name="Acircumflex" unicode="&#xc2;" horiz-adv-x="667" 
d="M-1 0l275 716h102l292 -716h-107l-84 218h-299l-79 -218h-100v0v0zM284 504l-79 -211h243l-75 199q-1 0 -1.5 1.5t-0.5 2.5q-1 2 -1.5 3.5t-1.5 2.5q-1 2 -1.5 3.5t-0.5 3.5q-1 1 -1.5 3t-0.5 3q-6 14 -11 28.5t-10 29.5t-9.5 31.5t-9.5 34.5l-2 2q-4 -19 -7.5 -36.5
t-8.5 -34.5q-4 -17 -10 -34l-12 -34v2v0zM335 844l-56 -83h-100l106 137h93l110 -137h-100l-53 83v0v0z" />
    <glyph glyph-name="Atilde" unicode="&#xc3;" horiz-adv-x="667" 
d="M-1 0l275 716h102l292 -716h-107l-84 218h-299l-79 -218h-100v0v0zM284 504l-79 -211h243l-75 199q-1 0 -1.5 1.5t-0.5 2.5q-1 2 -1.5 3.5t-1.5 2.5q-1 2 -1.5 3.5t-0.5 3.5q-1 1 -1.5 3t-0.5 3q-6 14 -11 28.5t-10 29.5t-9.5 31.5t-9.5 34.5l-2 2q-4 -19 -7.5 -36.5
t-8.5 -34.5q-4 -17 -10 -34l-12 -34v2v0zM433 887h64q-1 -25 -5.5 -42.5t-12.5 -28.5q-7 -12 -15.5 -19.5t-17.5 -12.5q-7 -4 -13.5 -6.5t-12.5 -3.5t-11 -1h-8q-7 0 -14.5 1t-16.5 4q-9 2 -19.5 6.5t-21.5 11.5l-18 12q-8 3 -14 5.5t-11 3.5q-4 1 -7.5 1.5t-6.5 0.5h-1h-1
q-1 -1 -2 -1h-3q-1 0 -2.5 -0.5t-2.5 -0.5l-3 -1.5l-3 -1.5q-4 -2 -7 -5t-6 -8q-3 -4 -4.5 -11t-1.5 -16v0v0v-1v0v0v0v0v0v-1v0v0v0l-65 2q-1 26 6 47t22 34q15 14 31.5 21t34.5 8h0.5h1.5h1.5h1.5h3.5h2.5h2h2q0 -1 1 -1h2q5 -1 11 -2.5t12 -3.5t14.5 -5t18.5 -8
q14 -7 23 -11t14 -6q5 -1 9.5 -2.5t8.5 -1.5h0.5h1.5h1.5h1.5q8 0 13.5 2t9.5 6q5 5 8 13t4 21v2v0z" />
    <glyph glyph-name="Adieresis" unicode="&#xc4;" horiz-adv-x="667" 
d="M-1 0l275 716h102l292 -716h-107l-84 218h-299l-79 -218h-100v0v0zM284 504l-79 -211h243l-75 199q-1 0 -1.5 1.5t-0.5 2.5q-1 2 -1.5 3.5t-1.5 2.5q-1 2 -1.5 3.5t-0.5 3.5q-1 1 -1.5 3t-0.5 3q-6 14 -11 28.5t-10 29.5t-9.5 31.5t-9.5 34.5l-2 2q-4 -19 -7.5 -36.5
t-8.5 -34.5q-4 -17 -10 -34l-12 -34v2v0zM198 781v100h90v-100h-90v0v0zM379 781v100h90v-100h-90v0v0z" />
    <glyph glyph-name="Aring" unicode="&#xc5;" horiz-adv-x="667" 
d="M-1 0l275 716h102l292 -716h-107l-84 218h-299l-79 -218h-100v0v0zM284 504l-79 -211h243l-75 199q-1 0 -1.5 1.5t-0.5 2.5q-1 2 -1.5 3.5t-1.5 2.5q-1 2 -1.5 3.5t-0.5 3.5q-1 1 -1.5 3t-0.5 3q-6 14 -11 28.5t-10 29.5t-9.5 31.5t-9.5 34.5l-2 2q-4 -19 -7.5 -36.5
t-8.5 -34.5q-4 -17 -10 -34l-12 -34v2v0zM333 922q18 -2 34 -8.5t29 -19.5t19.5 -29t6.5 -34q0 -19 -6.5 -34.5t-19.5 -28.5t-29 -19.5t-34 -6.5q-19 0 -34.5 6.5t-27.5 19.5q-13 13 -19 28.5t-6 34.5q0 18 6 34t19 29q12 13 27.5 19.5t34.5 6.5v2v0zM282 834q0 -14 4 -23.5
t12 -17.5q8 -7 17 -11t19 -4q11 0 20.5 4t16.5 11q8 8 11.5 17.5t3.5 20.5t-3.5 20t-11.5 17q-7 8 -16.5 12t-20.5 4t-20 -4t-17 -12q-7 -8 -11 -17t-4 -19v2v0z" />
    <glyph glyph-name="AE" unicode="&#xc6;" horiz-adv-x="1000" 
d="M0 0l345 716h587v-85h-360v-220h335v-84h-335v-243h373v-84h-468v207h-276l-98 -207h-103v0v0zM406 631l-165 -340h236v340h-71v0v0z" />
    <glyph glyph-name="Ccedilla" unicode="&#xc7;" horiz-adv-x="722" 
d="M398 -12l-6 -25q20 -2 35 -8.5t25 -16.5q9 -10 14.5 -21t6.5 -23v-0.5t1 -1.5v-0.5v-1.5v-1.5v-1.5v-0.5v-1.5q0 -26 -10.5 -43t-30.5 -27q-21 -9 -43.5 -15t-46.5 -8h-6.5t-6.5 -1h-6h-6h-6t-6 -1h-6h-6h-6h-6h-5.5h-4.5q-3 1 -5.5 1h-4.5h-5.5h-4.5l4 62h1.5h1.5h0.5
h1.5h1.5t1.5 -1h2h2h3.5t3.5 -1h5h5h5t6 -1h6h7h3.5h3.5q2 1 4 1h5h4.5h5.5q2 1 5 1h6q8 1 15 4t14 7t10.5 9.5t3.5 13.5q0 10 -5.5 17t-16.5 11t-26 6.5t-35 2.5l25 68q-70 7 -120 34t-82 73q-31 47 -50 96.5t-25 103.5q-1 8 -1.5 15.5t-0.5 14.5q-1 8 -1 15.5v14.5
q0 90 22 156t65 108q44 42 92 67t100 33q4 0 7.5 0.5t7.5 1.5q3 0 6.5 0.5t7.5 0.5h7.5t7.5 1h6.5h7.5q47 0 90.5 -12.5t82.5 -36.5t66.5 -64t43.5 -96l-93 -20q-2 4 -4.5 10t-4.5 13q-3 6 -6 13l-6 14q-10 18 -24.5 35t-34.5 32q-19 15 -47 23t-64 8q-62 0 -106 -18.5
t-70 -55.5q-25 -37 -40 -77.5t-20 -84.5q0 -3 -0.5 -6t-0.5 -6q-1 -4 -1 -7v-6v-13v-12q0 -13 1 -29t2 -36q2 -19 6.5 -39.5t11.5 -41.5q0 -2 0.5 -4t1.5 -4q1 -1 1.5 -2.5t1.5 -3.5q11 -30 31 -54t48 -42t59.5 -27t66.5 -9q30 0 55.5 6t46.5 18q20 12 36 25.5t27 28.5
q2 2 3.5 4.5t2.5 4.5q2 2 3.5 4.5t2.5 4.5q8 13 13.5 25t8.5 23t5.5 20.5t4.5 17.5l95 -22q-16 -62 -43.5 -107t-66.5 -73t-83 -42.5t-93 -16.5v0v0z" />
    <glyph glyph-name="Egrave" unicode="&#xc8;" horiz-adv-x="667" 
d="M79 0v716h518v-85h-423v-219h396v-85h-396v-242h440v-85h-535v0v0zM334 898l65 -137h-72l-108 137h115v0v0z" />
    <glyph glyph-name="Eacute" unicode="&#xc9;" horiz-adv-x="667" 
d="M79 0v716h518v-85h-423v-219h396v-85h-396v-242h440v-85h-535v0v0zM278 761l65 137h115l-108 -137h-72v0v0z" />
    <glyph glyph-name="Ecircumflex" unicode="&#xca;" horiz-adv-x="667" 
d="M79 0v716h518v-85h-423v-219h396v-85h-396v-242h440v-85h-535v0v0zM345 844l-56 -83h-100l106 137h93l110 -137h-100l-53 83v0v0z" />
    <glyph glyph-name="Edieresis" unicode="&#xcb;" horiz-adv-x="667" 
d="M79 0v716h518v-85h-423v-219h396v-85h-396v-242h440v-85h-535v0v0zM208 781v100h90v-100h-90v0v0zM389 781v100h90v-100h-90v0v0z" />
    <glyph glyph-name="Igrave" unicode="&#xcc;" 
d="M92 0v716h95v-716h-95v0v0zM130 898l65 -137h-72l-108 137h115v0v0z" />
    <glyph glyph-name="Iacute" unicode="&#xcd;" 
d="M92 0v716h95v-716h-95v0v0zM84 761l65 137h115l-108 -137h-72v0v0z" />
    <glyph glyph-name="Icircumflex" unicode="&#xce;" 
d="M92 0v716h95v-716h-95v0v0zM141 844l-56 -83h-100l106 137h93l110 -137h-100l-53 83v0v0z" />
    <glyph glyph-name="Idieresis" unicode="&#xcf;" 
d="M92 0v716h95v-716h-95v0v0zM4 781v100h90v-100h-90v0v0zM185 781v100h90v-100h-90v0v0z" />
    <glyph glyph-name="Eth" unicode="&#xd0;" horiz-adv-x="722" 
d="M80 0v316h-79v85h79v315h247q14 -2 27.5 -2.5t28.5 -0.5q14 -1 28.5 -2.5t29.5 -3.5q19 -4 37.5 -10t37.5 -15q18 -9 35.5 -23t33.5 -32q1 -1 1.5 -2t1.5 -1q1 -1 1.5 -2t1.5 -2q2 -2 3.5 -4t2.5 -4q14 -18 26.5 -42t24.5 -54t18 -69t6 -87q0 -49 -7 -92.5t-21 -79.5
q-14 -37 -32.5 -66t-41.5 -51q-10 -10 -20.5 -18t-21.5 -14q-11 -7 -22.5 -12t-22.5 -9q-21 -7 -41.5 -11.5t-40.5 -5.5q-19 -1 -35 -1h-28h-258v0v0zM175 316v-231h153v-2v0v0h1v0v0h21t24 1q13 0 26 2t26 6q28 8 53.5 25.5t48.5 45.5q23 29 34.5 78.5t11.5 119.5
q0 34 -3 61t-8 47q-6 20 -12 36t-13 28q-1 2 -2 3t-1 3q-1 1 -2 2.5t-2 2.5q-1 2 -2.5 4.5t-3.5 4.5q-17 23 -36.5 38t-41.5 22t-43.5 11t-44.5 5h-4h-4h-5h-4h-4h-4h-5h-4l-150 2v-230h195v-85h-195v0v0z" />
    <glyph glyph-name="Ntilde" unicode="&#xd1;" horiz-adv-x="722" 
d="M79 0v716h97l374 -562h2v562h90v-716h-97l-374 562h-2v-562h-90v0v0zM471 887h64q-1 -25 -5.5 -42.5t-12.5 -28.5q-7 -12 -15.5 -19.5t-17.5 -12.5q-7 -4 -13.5 -6.5t-12.5 -3.5t-11 -1h-8q-7 0 -14.5 1t-16.5 4q-9 2 -19.5 6.5t-21.5 11.5l-18 12q-8 3 -14 5.5t-11 3.5
q-4 1 -7.5 1.5t-6.5 0.5h-1h-1q-1 -1 -2 -1h-3q-1 0 -2.5 -0.5t-2.5 -0.5l-3 -1.5l-3 -1.5q-4 -2 -7 -5t-6 -8q-3 -4 -4.5 -11t-1.5 -16v0v0v-1v0v0v0v0v0v-1v0v0v0l-65 2q-1 26 6 47t22 34q15 14 31.5 21t34.5 8h0.5h1.5h1.5h1.5h3.5h2.5h2h2q0 -1 1 -1h2q5 -1 11 -2.5
t12 -3.5t14.5 -5t18.5 -8q14 -7 23 -11t14 -6q5 -1 9.5 -2.5t8.5 -1.5h0.5h1.5h1.5h1.5q8 0 13.5 2t9.5 6q5 5 8 13t4 21v2v0z" />
    <glyph glyph-name="Ograve" unicode="&#xd2;" 
 />
    <glyph glyph-name="Oacute" unicode="&#xd3;" horiz-adv-x="778" 
d="M47 349q0 94 25.5 165t76.5 118t111 70.5t130 23.5q73 0 134 -24.5t110 -74.5q49 -49 73.5 -117.5t24.5 -154.5q0 -87 -25 -155t-75 -116q-49 -49 -110 -72.5t-132 -23.5q-84 0 -148 27.5t-108 82.5q-43 56 -65 118t-22 131v2v0zM145 347q0 -64 16.5 -114.5t50.5 -88.5
q34 -39 78 -58t99 -19q49 0 91.5 17.5t79.5 52.5t55.5 89.5t18.5 128.5q0 77 -19 132.5t-57 89.5q-37 34 -79 51t-88 17q-28 0 -56 -6.5t-54 -18.5q-27 -12 -48 -30t-37 -41q-6 -8 -11 -17t-9 -18q-2 -4 -4 -9t-4 -9q-1 -5 -2.5 -9.5t-3.5 -9.5q-7 -22 -10.5 -42t-4.5 -40
q-1 -19 -1.5 -31.5t-0.5 -18.5v2v0zM334 761l65 137h115l-108 -137h-72v0v0z" />
    <glyph glyph-name="Ocircumflex" unicode="&#xd4;" horiz-adv-x="778" 
d="M47 349q0 94 25.5 165t76.5 118t111 70.5t130 23.5q73 0 134 -24.5t110 -74.5q49 -49 73.5 -117.5t24.5 -154.5q0 -87 -25 -155t-75 -116q-49 -49 -110 -72.5t-132 -23.5q-84 0 -148 27.5t-108 82.5q-43 56 -65 118t-22 131v2v0zM145 347q0 -64 16.5 -114.5t50.5 -88.5
q34 -39 78 -58t99 -19q49 0 91.5 17.5t79.5 52.5t55.5 89.5t18.5 128.5q0 77 -19 132.5t-57 89.5q-37 34 -79 51t-88 17q-28 0 -56 -6.5t-54 -18.5q-27 -12 -48 -30t-37 -41q-6 -8 -11 -17t-9 -18q-2 -4 -4 -9t-4 -9q-1 -5 -2.5 -9.5t-3.5 -9.5q-7 -22 -10.5 -42t-4.5 -40
q-1 -19 -1.5 -31.5t-0.5 -18.5v2v0zM391 844l-56 -83h-100l106 137h93l110 -137h-100l-53 83v0v0z" />
    <glyph glyph-name="Otilde" unicode="&#xd5;" horiz-adv-x="778" 
d="M47 349q0 94 25.5 165t76.5 118t111 70.5t130 23.5q73 0 134 -24.5t110 -74.5q49 -49 73.5 -117.5t24.5 -154.5q0 -87 -25 -155t-75 -116q-49 -49 -110 -72.5t-132 -23.5q-84 0 -148 27.5t-108 82.5q-43 56 -65 118t-22 131v2v0zM145 347q0 -64 16.5 -114.5t50.5 -88.5
q34 -39 78 -58t99 -19q49 0 91.5 17.5t79.5 52.5t55.5 89.5t18.5 128.5q0 77 -19 132.5t-57 89.5q-37 34 -79 51t-88 17q-28 0 -56 -6.5t-54 -18.5q-27 -12 -48 -30t-37 -41q-6 -8 -11 -17t-9 -18q-2 -4 -4 -9t-4 -9q-1 -5 -2.5 -9.5t-3.5 -9.5q-7 -22 -10.5 -42t-4.5 -40
q-1 -19 -1.5 -31.5t-0.5 -18.5v2v0zM489 887h64q-1 -25 -5.5 -42.5t-12.5 -28.5q-7 -12 -15.5 -19.5t-17.5 -12.5q-7 -4 -13.5 -6.5t-12.5 -3.5t-11 -1h-8q-7 0 -14.5 1t-16.5 4q-9 2 -19.5 6.5t-21.5 11.5l-18 12q-8 3 -14 5.5t-11 3.5q-4 1 -7.5 1.5t-6.5 0.5h-1h-1
q-1 -1 -2 -1h-3q-1 0 -2.5 -0.5t-2.5 -0.5l-3 -1.5l-3 -1.5q-4 -2 -7 -5t-6 -8q-3 -4 -4.5 -11t-1.5 -16v0v0v-1v0v0v0v0v0v-1v0v0v0l-65 2q-1 26 6 47t22 34q15 14 31.5 21t34.5 8h0.5h1.5h1.5h1.5h3.5h2.5h2h2q0 -1 1 -1h2q5 -1 11 -2.5t12 -3.5t14.5 -5t18.5 -8
q14 -7 23 -11t14 -6q5 -1 9.5 -2.5t8.5 -1.5h0.5h1.5h1.5h1.5q8 0 13.5 2t9.5 6q5 5 8 13t4 21v2v0z" />
    <glyph glyph-name="Odieresis" unicode="&#xd6;" horiz-adv-x="778" 
d="M47 349q0 94 25.5 165t76.5 118t111 70.5t130 23.5q73 0 134 -24.5t110 -74.5q49 -49 73.5 -117.5t24.5 -154.5q0 -87 -25 -155t-75 -116q-49 -49 -110 -72.5t-132 -23.5q-84 0 -148 27.5t-108 82.5q-43 56 -65 118t-22 131v2v0zM145 347q0 -64 16.5 -114.5t50.5 -88.5
q34 -39 78 -58t99 -19q49 0 91.5 17.5t79.5 52.5t55.5 89.5t18.5 128.5q0 77 -19 132.5t-57 89.5q-37 34 -79 51t-88 17q-28 0 -56 -6.5t-54 -18.5q-27 -12 -48 -30t-37 -41q-6 -8 -11 -17t-9 -18q-2 -4 -4 -9t-4 -9q-1 -5 -2.5 -9.5t-3.5 -9.5q-7 -22 -10.5 -42t-4.5 -40
q-1 -19 -1.5 -31.5t-0.5 -18.5v2v0zM254 781v100h90v-100h-90v0v0zM435 781v100h90v-100h-90v0v0z" />
    <glyph glyph-name="multiply" unicode="&#xd7;" 
 />
    <glyph glyph-name="Oslash" unicode="&#xd8;" horiz-adv-x="778" 
d="M611 650l82 92l49 -41l-86 -96q2 -5 4.5 -9t4.5 -8t4.5 -7.5t5.5 -7.5q11 -17 20.5 -38t18.5 -47q9 -25 13.5 -58t4.5 -74q0 -90 -25.5 -159t-76.5 -116t-110.5 -70t-127.5 -23q-36 0 -64.5 4t-51.5 11q-22 8 -41 18t-34 20q-4 2 -8 4.5t-7 5.5q-4 2 -7.5 4.5t-6.5 5.5
l-82 -90l-49 41l86 96q-1 0 -2 1.5t-2 2.5t-1.5 2t-0.5 2q-1 0 -1.5 1t-1.5 2q-14 23 -26.5 47t-23.5 49q-10 26 -15.5 61t-5.5 78q0 83 23.5 150t69.5 119q47 51 109.5 77t141.5 26q35 0 64 -4.5t51 -13.5q23 -9 41.5 -18t33.5 -20q4 -3 7.5 -6t7.5 -6t7.5 -5.5t7.5 -4.5v2
v0zM593 534l-363 -406q3 -4 6 -7t7 -6q2 -1 3.5 -2.5t3.5 -2.5q2 -2 4 -3t4 -3q11 -7 24 -13.5t29 -12.5t35.5 -8.5t42.5 -2.5q53 0 97 18.5t78 55.5q35 38 52.5 90.5t17.5 121.5q0 28 -3 53t-8 47q-6 22 -13.5 41.5t-16.5 37.5v2v0zM189 177l363 408q-1 -1 -1.5 -1t-1.5 1
q-1 0 -1.5 0.5t-0.5 1.5q-15 11 -30.5 21t-32.5 19q-16 9 -39.5 13.5t-53.5 4.5q-8 0 -16.5 -0.5t-17.5 -1.5t-18 -3t-17 -4q-34 -9 -64.5 -29.5t-57.5 -52.5q-28 -31 -41.5 -80.5t-13.5 -117.5q0 -34 3 -60t9 -45t13 -35.5t14 -30.5q0 -1 0.5 -2.5t1.5 -3.5q1 -1 1.5 -2
t1.5 -2v2v0z" />
    <glyph glyph-name="Ugrave" unicode="&#xd9;" horiz-adv-x="722" 
d="M547 716h95v-414q0 -14 -0.5 -30t-1.5 -34q0 -9 -1 -18t-3 -18q-1 -10 -3 -19l-4 -18q-9 -34 -28 -64.5t-48 -58.5q-28 -28 -76 -41t-115 -13q-77 0 -129.5 16t-80.5 49t-45 70t-22 77q-2 13 -3.5 25.5t-1.5 25.5q-1 13 -1 25v24v416h95v-413v-21v-21q0 -10 1.5 -20.5
t2.5 -21.5q4 -28 14.5 -53.5t28.5 -48.5t51 -34.5t82 -11.5q66 0 106.5 16.5t55.5 49.5t23 74t8 90v415v0v0zM352 898l65 -137h-72l-108 137h115v0v0z" />
    <glyph glyph-name="Uacute" unicode="&#xda;" horiz-adv-x="722" 
d="M547 716h95v-414q0 -14 -0.5 -30t-1.5 -34q0 -9 -1 -18t-3 -18q-1 -10 -3 -19l-4 -18q-9 -34 -28 -64.5t-48 -58.5q-28 -28 -76 -41t-115 -13q-77 0 -129.5 16t-80.5 49t-45 70t-22 77q-2 13 -3.5 25.5t-1.5 25.5q-1 13 -1 25v24v416h95v-413v-21v-21q0 -10 1.5 -20.5
t2.5 -21.5q4 -28 14.5 -53.5t28.5 -48.5t51 -34.5t82 -11.5q66 0 106.5 16.5t55.5 49.5t23 74t8 90v415v0v0zM306 761l65 137h115l-108 -137h-72v0v0z" />
    <glyph glyph-name="Ucircumflex" unicode="&#xdb;" horiz-adv-x="722" 
d="M547 716h95v-414q0 -14 -0.5 -30t-1.5 -34q0 -9 -1 -18t-3 -18q-1 -10 -3 -19l-4 -18q-9 -34 -28 -64.5t-48 -58.5q-28 -28 -76 -41t-115 -13q-77 0 -129.5 16t-80.5 49t-45 70t-22 77q-2 13 -3.5 25.5t-1.5 25.5q-1 13 -1 25v24v416h95v-413v-21v-21q0 -10 1.5 -20.5
t2.5 -21.5q4 -28 14.5 -53.5t28.5 -48.5t51 -34.5t82 -11.5q66 0 106.5 16.5t55.5 49.5t23 74t8 90v415v0v0zM363 844l-56 -83h-100l106 137h93l110 -137h-100l-53 83v0v0z" />
    <glyph glyph-name="Udieresis" unicode="&#xdc;" horiz-adv-x="722" 
d="M547 716h95v-414q0 -14 -0.5 -30t-1.5 -34q0 -9 -1 -18t-3 -18q-1 -10 -3 -19l-4 -18q-9 -34 -28 -64.5t-48 -58.5q-28 -28 -76 -41t-115 -13q-77 0 -129.5 16t-80.5 49t-45 70t-22 77q-2 13 -3.5 25.5t-1.5 25.5q-1 13 -1 25v24v416h95v-413v-21v-21q0 -10 1.5 -20.5
t2.5 -21.5q4 -28 14.5 -53.5t28.5 -48.5t51 -34.5t82 -11.5q66 0 106.5 16.5t55.5 49.5t23 74t8 90v415v0v0zM226 781v100h90v-100h-90v0v0zM407 781v100h90v-100h-90v0v0z" />
    <glyph glyph-name="Yacute" unicode="&#xdd;" 
 />
    <glyph glyph-name="Thorn" unicode="&#xde;" horiz-adv-x="667" 
d="M77 0v716h95v-145h175q11 -2 21.5 -2.5t22.5 -0.5t24 -0.5t24 -2.5q8 -1 15.5 -2.5t15.5 -3.5q7 -2 15 -4t15 -4q15 -5 28.5 -12.5t25.5 -17.5q14 -12 25 -25.5t19 -29.5t13.5 -31.5t8.5 -32.5q0 -5 0.5 -10t1.5 -10v-5.5t1 -4.5v-5.5v-4.5q0 -22 -3.5 -43t-10.5 -42
t-18.5 -39t-27.5 -34q-10 -10 -21.5 -18t-25.5 -14q-7 -3 -13.5 -6t-12.5 -5q-7 -2 -13.5 -4t-13.5 -4q-13 -3 -26.5 -5t-26.5 -3t-24 -1.5t-21 -0.5l-193 2v-145h-95v0v0zM172 486v-256h184q7 -2 15 -2t18 1q9 0 19 1.5t20 4.5q18 5 35 14t32 22q15 14 22.5 35.5t7.5 52.5
q0 5 -0.5 9.5t-1.5 9.5t-1.5 10.5t-2.5 11.5q-2 7 -5 14t-7 14t-9.5 13.5t-11.5 12.5q-13 11 -27 18t-30 8q-16 2 -34.5 3t-40.5 1l-182 2v0v0z" />
    <glyph glyph-name="germandbls" unicode="&#xdf;" horiz-adv-x="611" 
d="M72 0v487q0 21 1 40.5t4 35.5q2 17 6.5 32t10.5 28q9 21 23 37t33 28q18 12 37.5 20t40.5 12q6 2 12.5 2.5t13.5 1.5t13.5 1.5t13.5 0.5q44 0 77.5 -11t56.5 -33t35 -46t12 -50q0 -7 -0.5 -14t-1.5 -13q-1 -3 -1.5 -6t-1.5 -6q-1 -4 -2 -7l-2 -6q-3 -10 -7.5 -19.5
t-10.5 -20.5q-6 -10 -12 -21.5t-14 -24.5q-4 -8 -8.5 -16t-7.5 -16t-4.5 -15.5t-1.5 -13.5q0 -5 0.5 -9.5t1.5 -8.5q2 -4 4 -7.5t5 -7.5q5 -6 11.5 -12t16.5 -13q9 -7 22 -15t29 -18q22 -14 40 -29t32 -32q14 -16 21 -37.5t7 -47.5q0 -32 -12.5 -60.5t-36.5 -53.5
t-56.5 -36.5t-73.5 -11.5q-27 0 -49 5t-40 14q-18 11 -31.5 22.5t-24.5 24.5q-6 6 -11 12.5t-9 13.5q-4 6 -7 12t-5 11l76 37q14 -27 27 -43.5t26 -24.5q12 -7 24 -10.5t23 -3.5q18 0 34 6t29 19q14 13 20.5 28t6.5 32q0 6 -0.5 12t-2.5 10q-1 2 -2 4.5t-2 5.5q-1 2 -2 4.5
t-3 4.5q-4 6 -11.5 13.5t-18.5 14.5q-10 8 -24 17.5t-32 21.5q-33 23 -53 41.5t-26 33.5q-7 14 -10 26t-3 21v4v5q0 2 0.5 4t0.5 4q0 4 1.5 8t2.5 8q2 8 5 15.5t7 14.5q4 8 8.5 16t10.5 18q10 17 17.5 31t13.5 27t9 25t3 24q0 16 -7 29.5t-21 24.5t-31.5 16.5t-38.5 5.5
q-32 0 -54 -9t-34 -27t-19 -38t-9 -41q-1 -7 -1.5 -14.5t-0.5 -15.5v-14v-13v-481h-88v0v0z" />
    <glyph glyph-name="agrave" unicode="&#xe0;" horiz-adv-x="556" 
d="M139 359l-86 11q2 5 3.5 12.5t4.5 17.5q2 9 6.5 19t11.5 20q10 17 26.5 32t40.5 29q23 14 58.5 21t82.5 7q66 0 107.5 -12.5t57.5 -37.5q17 -25 26 -53t10 -58v-4v-4v-5v-4v-8.5v-8.5v-116q0 -44 0.5 -76t1.5 -52t5 -38t11 -33q1 -3 2 -5.5t2 -4.5q2 -3 3.5 -5t2.5 -3
h-92q-5 8 -8 17t-5 18q-1 8 -2.5 15t-2.5 12q-28 -24 -53.5 -39t-48.5 -22q-24 -6 -46 -9.5t-43 -3.5q-43 0 -75.5 10t-55.5 31t-34.5 47.5t-11.5 58.5t8.5 56t26.5 40q18 17 37.5 29t40.5 19q13 4 25.5 7t24.5 5t22.5 3.5t18.5 2.5q3 0 11.5 1.5t22.5 2.5q14 2 29 4.5
t31 5.5q8 2 16.5 3.5t17.5 3.5q8 2 15.5 4t14.5 5v4.5v5.5v3v3v2.5v2.5v1.5v1.5v0.5v1.5v1.5v1.5v0.5v1.5q-1 18 -7.5 35t-17.5 32t-36.5 23t-64.5 8q-34 0 -57 -6t-36 -17q-13 -12 -21.5 -24.5t-13.5 -26.5q-1 -1 -1.5 -3t-0.5 -3q-1 -2 -1.5 -3.5t-0.5 -3.5q-1 -3 -1.5 -6
t-1.5 -6v2v0zM400 228v32q-8 -5 -18 -8t-21 -6l-24 -6t-24 -5q-7 -1 -14.5 -2.5t-15.5 -3.5q-7 -1 -14.5 -2t-13.5 -2q-4 -1 -7.5 -1.5t-7.5 -0.5q-4 -1 -7.5 -1.5t-7.5 -1.5q-18 -3 -34 -9t-30 -14q-15 -9 -22 -24t-7 -36v-4.5v-4.5t0.5 -4t1.5 -4q2 -12 9 -23t19 -22
q12 -10 30.5 -15t43.5 -5q6 0 14.5 1t18.5 2q11 2 22 5t23 8q6 2 12 5.5t12 7.5q3 2 6 4.5t6 4.5q2 3 5 5.5t6 5.5q13 14 21 29t11 30t5 31t2 32v2v0zM269 728l65 -137h-72l-108 137h115v0v0z" />
    <glyph glyph-name="aacute" unicode="&#xe1;" horiz-adv-x="556" 
d="M139 359l-86 11q2 5 3.5 12.5t4.5 17.5q2 9 6.5 19t11.5 20q10 17 26.5 32t40.5 29q23 14 58.5 21t82.5 7q66 0 107.5 -12.5t57.5 -37.5q17 -25 26 -53t10 -58v-4v-4v-5v-4v-8.5v-8.5v-116q0 -44 0.5 -76t1.5 -52t5 -38t11 -33q1 -3 2 -5.5t2 -4.5q2 -3 3.5 -5t2.5 -3
h-92q-5 8 -8 17t-5 18q-1 8 -2.5 15t-2.5 12q-28 -24 -53.5 -39t-48.5 -22q-24 -6 -46 -9.5t-43 -3.5q-43 0 -75.5 10t-55.5 31t-34.5 47.5t-11.5 58.5t8.5 56t26.5 40q18 17 37.5 29t40.5 19q13 4 25.5 7t24.5 5t22.5 3.5t18.5 2.5q3 0 11.5 1.5t22.5 2.5q14 2 29 4.5
t31 5.5q8 2 16.5 3.5t17.5 3.5q8 2 15.5 4t14.5 5v4.5v5.5v3v3v2.5v2.5v1.5v1.5v0.5v1.5v1.5v1.5v0.5v1.5q-1 18 -7.5 35t-17.5 32t-36.5 23t-64.5 8q-34 0 -57 -6t-36 -17q-13 -12 -21.5 -24.5t-13.5 -26.5q-1 -1 -1.5 -3t-0.5 -3q-1 -2 -1.5 -3.5t-0.5 -3.5q-1 -3 -1.5 -6
t-1.5 -6v2v0zM400 228v32q-8 -5 -18 -8t-21 -6l-24 -6t-24 -5q-7 -1 -14.5 -2.5t-15.5 -3.5q-7 -1 -14.5 -2t-13.5 -2q-4 -1 -7.5 -1.5t-7.5 -0.5q-4 -1 -7.5 -1.5t-7.5 -1.5q-18 -3 -34 -9t-30 -14q-15 -9 -22 -24t-7 -36v-4.5v-4.5t0.5 -4t1.5 -4q2 -12 9 -23t19 -22
q12 -10 30.5 -15t43.5 -5q6 0 14.5 1t18.5 2q11 2 22 5t23 8q6 2 12 5.5t12 7.5q3 2 6 4.5t6 4.5q2 3 5 5.5t6 5.5q13 14 21 29t11 30t5 31t2 32v2v0zM223 591l65 137h115l-108 -137h-72v0v0z" />
    <glyph glyph-name="acircumflex" unicode="&#xe2;" horiz-adv-x="556" 
d="M139 359l-86 11q2 5 3.5 12.5t4.5 17.5q2 9 6.5 19t11.5 20q10 17 26.5 32t40.5 29q23 14 58.5 21t82.5 7q66 0 107.5 -12.5t57.5 -37.5q17 -25 26 -53t10 -58v-4v-4v-5v-4v-8.5v-8.5v-116q0 -44 0.5 -76t1.5 -52t5 -38t11 -33q1 -3 2 -5.5t2 -4.5q2 -3 3.5 -5t2.5 -3
h-92q-5 8 -8 17t-5 18q-1 8 -2.5 15t-2.5 12q-28 -24 -53.5 -39t-48.5 -22q-24 -6 -46 -9.5t-43 -3.5q-43 0 -75.5 10t-55.5 31t-34.5 47.5t-11.5 58.5t8.5 56t26.5 40q18 17 37.5 29t40.5 19q13 4 25.5 7t24.5 5t22.5 3.5t18.5 2.5q3 0 11.5 1.5t22.5 2.5q14 2 29 4.5
t31 5.5q8 2 16.5 3.5t17.5 3.5q8 2 15.5 4t14.5 5v4.5v5.5v3v3v2.5v2.5v1.5v1.5v0.5v1.5v1.5v1.5v0.5v1.5q-1 18 -7.5 35t-17.5 32t-36.5 23t-64.5 8q-34 0 -57 -6t-36 -17q-13 -12 -21.5 -24.5t-13.5 -26.5q-1 -1 -1.5 -3t-0.5 -3q-1 -2 -1.5 -3.5t-0.5 -3.5q-1 -3 -1.5 -6
t-1.5 -6v2v0zM400 228v32q-8 -5 -18 -8t-21 -6l-24 -6t-24 -5q-7 -1 -14.5 -2.5t-15.5 -3.5q-7 -1 -14.5 -2t-13.5 -2q-4 -1 -7.5 -1.5t-7.5 -0.5q-4 -1 -7.5 -1.5t-7.5 -1.5q-18 -3 -34 -9t-30 -14q-15 -9 -22 -24t-7 -36v-4.5v-4.5t0.5 -4t1.5 -4q2 -12 9 -23t19 -22
q12 -10 30.5 -15t43.5 -5q6 0 14.5 1t18.5 2q11 2 22 5t23 8q6 2 12 5.5t12 7.5q3 2 6 4.5t6 4.5q2 3 5 5.5t6 5.5q13 14 21 29t11 30t5 31t2 32v2v0zM280 674l-56 -83h-100l106 137h93l110 -137h-100l-53 83v0v0z" />
    <glyph glyph-name="atilde" unicode="&#xe3;" horiz-adv-x="556" 
d="M139 359l-86 11q2 5 3.5 12.5t4.5 17.5q2 9 6.5 19t11.5 20q10 17 26.5 32t40.5 29q23 14 58.5 21t82.5 7q66 0 107.5 -12.5t57.5 -37.5q17 -25 26 -53t10 -58v-4v-4v-5v-4v-8.5v-8.5v-116q0 -44 0.5 -76t1.5 -52t5 -38t11 -33q1 -3 2 -5.5t2 -4.5q2 -3 3.5 -5t2.5 -3
h-92q-5 8 -8 17t-5 18q-1 8 -2.5 15t-2.5 12q-28 -24 -53.5 -39t-48.5 -22q-24 -6 -46 -9.5t-43 -3.5q-43 0 -75.5 10t-55.5 31t-34.5 47.5t-11.5 58.5t8.5 56t26.5 40q18 17 37.5 29t40.5 19q13 4 25.5 7t24.5 5t22.5 3.5t18.5 2.5q3 0 11.5 1.5t22.5 2.5q14 2 29 4.5
t31 5.5q8 2 16.5 3.5t17.5 3.5q8 2 15.5 4t14.5 5v4.5v5.5v3v3v2.5v2.5v1.5v1.5v0.5v1.5v1.5v1.5v0.5v1.5q-1 18 -7.5 35t-17.5 32t-36.5 23t-64.5 8q-34 0 -57 -6t-36 -17q-13 -12 -21.5 -24.5t-13.5 -26.5q-1 -1 -1.5 -3t-0.5 -3q-1 -2 -1.5 -3.5t-0.5 -3.5q-1 -3 -1.5 -6
t-1.5 -6v2v0zM400 228v32q-8 -5 -18 -8t-21 -6l-24 -6t-24 -5q-7 -1 -14.5 -2.5t-15.5 -3.5q-7 -1 -14.5 -2t-13.5 -2q-4 -1 -7.5 -1.5t-7.5 -0.5q-4 -1 -7.5 -1.5t-7.5 -1.5q-18 -3 -34 -9t-30 -14q-15 -9 -22 -24t-7 -36v-4.5v-4.5t0.5 -4t1.5 -4q2 -12 9 -23t19 -22
q12 -10 30.5 -15t43.5 -5q6 0 14.5 1t18.5 2q11 2 22 5t23 8q6 2 12 5.5t12 7.5q3 2 6 4.5t6 4.5q2 3 5 5.5t6 5.5q13 14 21 29t11 30t5 31t2 32v2v0zM378 717h64q-1 -25 -5.5 -42.5t-12.5 -28.5q-7 -12 -15.5 -19.5t-17.5 -12.5q-7 -4 -13.5 -6.5t-12.5 -3.5t-11 -1h-8
q-7 0 -14.5 1t-16.5 4q-9 2 -19.5 6.5t-21.5 11.5l-18 12q-8 3 -14 5.5t-11 3.5q-4 1 -7.5 1.5t-6.5 0.5h-1h-1q-1 -1 -2 -1h-3q-1 0 -2.5 -0.5t-2.5 -0.5l-3 -1.5l-3 -1.5q-4 -2 -7 -5t-6 -8q-3 -4 -4.5 -11t-1.5 -16v0v0v-1v0v0v0v0v0v-1v0v0v0l-65 2q-1 26 6 47t22 34
q15 14 31.5 21t34.5 8h0.5h1.5h1.5h1.5h3.5h2.5h2h2q0 -1 1 -1h2q5 -1 11 -2.5t12 -3.5t14.5 -5t18.5 -8q14 -7 23 -11t14 -6q5 -1 9.5 -2.5t8.5 -1.5h0.5h1.5h1.5h1.5q8 0 13.5 2t9.5 6q5 5 8 13t4 21v2v0z" />
    <glyph glyph-name="adieresis" unicode="&#xe4;" horiz-adv-x="556" 
d="M139 359l-86 11q2 5 3.5 12.5t4.5 17.5q2 9 6.5 19t11.5 20q10 17 26.5 32t40.5 29q23 14 58.5 21t82.5 7q66 0 107.5 -12.5t57.5 -37.5q17 -25 26 -53t10 -58v-4v-4v-5v-4v-8.5v-8.5v-116q0 -44 0.5 -76t1.5 -52t5 -38t11 -33q1 -3 2 -5.5t2 -4.5q2 -3 3.5 -5t2.5 -3
h-92q-5 8 -8 17t-5 18q-1 8 -2.5 15t-2.5 12q-28 -24 -53.5 -39t-48.5 -22q-24 -6 -46 -9.5t-43 -3.5q-43 0 -75.5 10t-55.5 31t-34.5 47.5t-11.5 58.5t8.5 56t26.5 40q18 17 37.5 29t40.5 19q13 4 25.5 7t24.5 5t22.5 3.5t18.5 2.5q3 0 11.5 1.5t22.5 2.5q14 2 29 4.5
t31 5.5q8 2 16.5 3.5t17.5 3.5q8 2 15.5 4t14.5 5v4.5v5.5v3v3v2.5v2.5v1.5v1.5v0.5v1.5v1.5v1.5v0.5v1.5q-1 18 -7.5 35t-17.5 32t-36.5 23t-64.5 8q-34 0 -57 -6t-36 -17q-13 -12 -21.5 -24.5t-13.5 -26.5q-1 -1 -1.5 -3t-0.5 -3q-1 -2 -1.5 -3.5t-0.5 -3.5q-1 -3 -1.5 -6
t-1.5 -6v2v0zM400 228v32q-8 -5 -18 -8t-21 -6l-24 -6t-24 -5q-7 -1 -14.5 -2.5t-15.5 -3.5q-7 -1 -14.5 -2t-13.5 -2q-4 -1 -7.5 -1.5t-7.5 -0.5q-4 -1 -7.5 -1.5t-7.5 -1.5q-18 -3 -34 -9t-30 -14q-15 -9 -22 -24t-7 -36v-4.5v-4.5t0.5 -4t1.5 -4q2 -12 9 -23t19 -22
q12 -10 30.5 -15t43.5 -5q6 0 14.5 1t18.5 2q11 2 22 5t23 8q6 2 12 5.5t12 7.5q3 2 6 4.5t6 4.5q2 3 5 5.5t6 5.5q13 14 21 29t11 30t5 31t2 32v2v0zM143 611v100h90v-100h-90v0v0zM324 611v100h90v-100h-90v0v0z" />
    <glyph glyph-name="aring" unicode="&#xe5;" horiz-adv-x="556" 
d="M139 359l-86 11q2 5 3.5 12.5t4.5 17.5q2 9 6.5 19t11.5 20q10 17 26.5 32t40.5 29q23 14 58.5 21t82.5 7q66 0 107.5 -12.5t57.5 -37.5q17 -25 26 -53t10 -58v-4v-4v-5v-4v-8.5v-8.5v-116q0 -44 0.5 -76t1.5 -52t5 -38t11 -33q1 -3 2 -5.5t2 -4.5q2 -3 3.5 -5t2.5 -3
h-92q-5 8 -8 17t-5 18q-1 8 -2.5 15t-2.5 12q-28 -24 -53.5 -39t-48.5 -22q-24 -6 -46 -9.5t-43 -3.5q-43 0 -75.5 10t-55.5 31t-34.5 47.5t-11.5 58.5t8.5 56t26.5 40q18 17 37.5 29t40.5 19q13 4 25.5 7t24.5 5t22.5 3.5t18.5 2.5q3 0 11.5 1.5t22.5 2.5q14 2 29 4.5
t31 5.5q8 2 16.5 3.5t17.5 3.5q8 2 15.5 4t14.5 5v4.5v5.5v3v3v2.5v2.5v1.5v1.5v0.5v1.5v1.5v1.5v0.5v1.5q-1 18 -7.5 35t-17.5 32t-36.5 23t-64.5 8q-34 0 -57 -6t-36 -17q-13 -12 -21.5 -24.5t-13.5 -26.5q-1 -1 -1.5 -3t-0.5 -3q-1 -2 -1.5 -3.5t-0.5 -3.5q-1 -3 -1.5 -6
t-1.5 -6v2v0zM400 228v32q-8 -5 -18 -8t-21 -6l-24 -6t-24 -5q-7 -1 -14.5 -2.5t-15.5 -3.5q-7 -1 -14.5 -2t-13.5 -2q-4 -1 -7.5 -1.5t-7.5 -0.5q-4 -1 -7.5 -1.5t-7.5 -1.5q-18 -3 -34 -9t-30 -14q-15 -9 -22 -24t-7 -36v-4.5v-4.5t0.5 -4t1.5 -4q2 -12 9 -23t19 -22
q12 -10 30.5 -15t43.5 -5q6 0 14.5 1t18.5 2q11 2 22 5t23 8q6 2 12 5.5t12 7.5q3 2 6 4.5t6 4.5q2 3 5 5.5t6 5.5q13 14 21 29t11 30t5 31t2 32v2v0zM278 752q18 -2 34 -8.5t29 -19.5t19.5 -29t6.5 -34q0 -19 -6.5 -34.5t-19.5 -28.5t-29 -19.5t-34 -6.5q-19 0 -34.5 6.5
t-27.5 19.5q-13 13 -19 28.5t-6 34.5q0 18 6 34t19 29q12 13 27.5 19.5t34.5 6.5v2v0zM227 664q0 -14 4 -23.5t12 -17.5q8 -7 17 -11t19 -4q11 0 20.5 4t16.5 11q8 8 11.5 17.5t3.5 20.5t-3.5 20t-11.5 17q-7 8 -16.5 12t-20.5 4t-20 -4t-17 -12q-7 -8 -11 -17t-4 -19v2v0z
" />
    <glyph glyph-name="ae" unicode="&#xe6;" horiz-adv-x="889" 
d="M135 358l-86 10q2 5 3.5 12.5t4.5 16.5t7 18.5t10 19.5q10 17 26.5 33t38.5 31q23 14 56.5 21.5t78.5 7.5q33 0 58.5 -3.5t43.5 -9.5t31 -12.5t22 -14.5q5 -4 8.5 -8.5t6.5 -8.5t5.5 -7t3.5 -6q2 3 5.5 6.5l7.5 7.5q5 4 9.5 8t10.5 8q11 8 24 14.5t29 12.5t36 9.5t45 3.5
q61 0 105 -21t71 -62q27 -42 40 -89.5t13 -100.5v-2.5v-3.5v-2v-2v-1.5v-0.5v-1.5v-1.5v-1.5v-0.5v-1.5v-1.5l-374 2q0 -29 2 -49t6 -33t10.5 -24.5t15.5 -21.5q0 -1 0.5 -2t1.5 -2t2 -1.5t2 -1.5q8 -9 19 -16.5t24 -13.5q14 -7 30 -10t35 -3q23 0 42 5.5t33 15.5
q14 11 24.5 22t17.5 23q2 3 3 6t3 6l2.5 5t2.5 6q2 6 3.5 11.5t2.5 9.5l91 -10q-10 -34 -28 -64t-44 -56t-65 -38.5t-91 -12.5q-25 0 -50 5t-49 13q-25 9 -48 28.5t-46 48.5q-19 -19 -41 -35.5t-48 -31.5q-26 -14 -57.5 -21t-68.5 -7q-35 0 -62 6t-46 18t-32 26t-21 30
q-3 5 -5 9.5t-4 9.5q-2 4 -3 9t-2 9q-1 9 -2 16.5t-1 13.5q0 20 4.5 37.5t13.5 33.5t23.5 29.5t35.5 25.5q1 0 1.5 0.5l1.5 1.5q1 0 2 0.5t2 1.5q12 6 25.5 10.5t26.5 8.5q7 2 14.5 3.5t16.5 3.5q8 1 17.5 3t19.5 3q3 0 6 0.5t6 1.5q3 0 6.5 0.5t7.5 1.5q8 1 14.5 1.5
t12.5 1.5t11.5 2t10.5 2q6 1 11.5 2t9.5 2l10 2l10 2q3 1 7 2l8 2t8.5 2.5t8.5 2.5v3.5v2.5v2v2l0.5 1t0.5 2v3.5v2.5v3.5v2.5q0 25 -5.5 44.5t-16.5 33.5q-10 14 -33.5 21t-58.5 7q-39 0 -65 -6.5t-38 -20.5q-12 -13 -20 -27.5t-12 -31.5q0 -1 -0.5 -2l-0.5 -1q-1 -1 -1 -2
v-2v-2v-1q-1 -1 -1 -2v-2v2v0zM388 260q-8 -5 -18 -8.5t-21 -6.5q-6 -1 -12 -2.5t-11 -2.5q-6 -2 -12 -3l-12 -2q-10 -1 -19 -2.5t-18 -3.5q-9 -1 -17 -2.5t-16 -3.5q-4 -1 -9.5 -1.5t-10.5 -2.5q-3 -1 -5.5 -1.5t-4.5 -0.5q-3 -1 -5.5 -1.5t-5.5 -1.5q-12 -4 -23 -10
t-21 -14q-10 -9 -14.5 -21.5t-4.5 -29.5v-7.5t1 -8.5q1 -4 2.5 -8.5t2.5 -9.5q4 -9 11.5 -17.5t17.5 -16.5q11 -7 27.5 -11t38.5 -4q23 0 44.5 5.5t41.5 15.5q20 11 35 26t24 34v0.5t1 1.5v0.5v0.5q0 1 0.5 1.5l1.5 1.5q3 10 5.5 21t3.5 23t1.5 30t0.5 41v2v0zM475 309h285
q-1 4 -1.5 10.5t-2.5 16.5q-1 10 -4 20.5t-8 20.5q-6 15 -16.5 28.5t-24.5 25.5t-35 18.5t-49 6.5q-37 0 -63 -11.5t-43 -34.5q-16 -22 -26 -47.5t-12 -52.5v-1.5v-0.5v0v0v-1v0v2v0z" />
    <glyph glyph-name="ccedilla" unicode="&#xe7;" horiz-adv-x="500" 
d="M286 -12l-6 -24q15 -2 26.5 -5t19.5 -8t14 -11t10 -12q3 -6 5 -12t3 -12q1 -5 1.5 -8.5t0.5 -4.5q0 -20 -7 -34.5t-21 -23.5t-29 -15t-32 -9q-7 -2 -14 -2.5t-14 -1.5h-6.5t-6.5 -1h-6h-6h-5.5h-4.5h-4h-4q-4 1 -7.5 1.5t-7.5 0.5q-4 1 -8.5 1.5t-9.5 0.5l2 58
q4 0 7.5 -0.5t6.5 -1.5h3.5t3.5 -1h3h3h2t2 -1h2h2h4h4h3.5h2.5h1.5h1.5h0.5h1.5q11 1 20 3t18 6t13.5 10t4.5 15q0 7 -3 12.5t-9 8.5t-12.5 5t-13.5 4q-5 1 -10 1.5t-10 0.5h-8h-6l16 64q-43 7 -76.5 27.5t-58.5 54.5q-25 35 -37 79t-12 99q0 11 0.5 23.5t1.5 25.5l4 28
t6 28q2 7 4 13.5t4 13.5q3 6 6 12.5t6 13.5q6 14 14.5 26t18.5 23q11 12 24 22.5t28 17.5q14 8 29 13t30 9q8 2 15.5 3t14.5 2q4 0 8 0.5t8 0.5q3 1 7 1h8q9 0 19 -0.5t21 -2.5q11 -1 22 -4t23 -7t24 -10.5t24 -14.5t22.5 -18.5t19.5 -23.5q8 -12 13.5 -23t8.5 -22
q3 -10 5.5 -20l4.5 -18l-86 -12q-7 26 -18 46t-27 33q-16 12 -34.5 18.5t-39.5 6.5q-34 0 -59.5 -10t-41.5 -30t-26 -42t-15 -45q-2 -10 -3.5 -19.5t-2.5 -18.5t-1 -17.5v-16.5v-15.5t1 -23.5q1 -13 4 -28t8 -30q6 -19 16.5 -36.5t25.5 -33.5t37.5 -24t52.5 -8
q24 0 42.5 5.5t31.5 15.5q13 11 22.5 22t16.5 24q5 9 8 18t5 18t3 15.5t2 10.5l86 -9q-7 -44 -21 -75.5t-36 -52.5t-45.5 -34.5t-48.5 -18.5q-7 -2 -13.5 -3.5t-13.5 -2.5t-14 -1.5t-13 -1.5v0v0z" />
    <glyph glyph-name="egrave" unicode="&#xe8;" horiz-adv-x="556" 
d="M424 167l90 -11q-10 -38 -28.5 -68.5t-46.5 -53.5q-28 -24 -66 -35t-86 -11q-61 0 -107 17.5t-78 54.5q-31 36 -47 84.5t-16 108.5q0 59 15.5 108.5t46.5 88.5t76 58.5t103 19.5q7 0 14.5 -0.5t14.5 -1.5q8 -1 15.5 -1.5t14.5 -2.5q33 -7 64 -26.5t59 -49.5
q28 -31 41.5 -80t13.5 -117v-2v-2v-1.5v-1.5v-2v-2v-1.5v-1.5l-388 2q2 -48 15 -82t37 -55t50.5 -31.5t55.5 -10.5q23 0 41.5 4.5t31.5 13.5q14 9 24.5 19.5t17.5 21.5q4 7 7 13.5t6 12.5t5.5 12t3.5 10v2v0zM134 309h293q-1 16 -4 31t-8 28q-5 14 -12.5 25t-16.5 21
q-9 9 -20 16.5t-25 13.5t-29 9t-31 3q-31 0 -56 -9.5t-42 -28.5q-18 -19 -29 -39t-16 -43l-2 -8t-1 -7q-1 -4 -1 -7.5v-6.5v2v0zM269 728l65 -137h-72l-108 137h115v0v0z" />
    <glyph glyph-name="eacute" unicode="&#xe9;" horiz-adv-x="556" 
d="M424 167l90 -11q-10 -38 -28.5 -68.5t-46.5 -53.5q-28 -24 -66 -35t-86 -11q-61 0 -107 17.5t-78 54.5q-31 36 -47 84.5t-16 108.5q0 59 15.5 108.5t46.5 88.5t76 58.5t103 19.5q7 0 14.5 -0.5t14.5 -1.5q8 -1 15.5 -1.5t14.5 -2.5q33 -7 64 -26.5t59 -49.5
q28 -31 41.5 -80t13.5 -117v-2v-2v-1.5v-1.5v-2v-2v-1.5v-1.5l-388 2q2 -48 15 -82t37 -55t50.5 -31.5t55.5 -10.5q23 0 41.5 4.5t31.5 13.5q14 9 24.5 19.5t17.5 21.5q4 7 7 13.5t6 12.5t5.5 12t3.5 10v2v0zM134 309h293q-1 16 -4 31t-8 28q-5 14 -12.5 25t-16.5 21
q-9 9 -20 16.5t-25 13.5t-29 9t-31 3q-31 0 -56 -9.5t-42 -28.5q-18 -19 -29 -39t-16 -43l-2 -8t-1 -7q-1 -4 -1 -7.5v-6.5v2v0zM223 591l65 137h115l-108 -137h-72v0v0z" />
    <glyph glyph-name="ecircumflex" unicode="&#xea;" horiz-adv-x="556" 
d="M424 167l90 -11q-10 -38 -28.5 -68.5t-46.5 -53.5q-28 -24 -66 -35t-86 -11q-61 0 -107 17.5t-78 54.5q-31 36 -47 84.5t-16 108.5q0 59 15.5 108.5t46.5 88.5t76 58.5t103 19.5q7 0 14.5 -0.5t14.5 -1.5q8 -1 15.5 -1.5t14.5 -2.5q33 -7 64 -26.5t59 -49.5
q28 -31 41.5 -80t13.5 -117v-2v-2v-1.5v-1.5v-2v-2v-1.5v-1.5l-388 2q2 -48 15 -82t37 -55t50.5 -31.5t55.5 -10.5q23 0 41.5 4.5t31.5 13.5q14 9 24.5 19.5t17.5 21.5q4 7 7 13.5t6 12.5t5.5 12t3.5 10v2v0zM134 309h293q-1 16 -4 31t-8 28q-5 14 -12.5 25t-16.5 21
q-9 9 -20 16.5t-25 13.5t-29 9t-31 3q-31 0 -56 -9.5t-42 -28.5q-18 -19 -29 -39t-16 -43l-2 -8t-1 -7q-1 -4 -1 -7.5v-6.5v2v0zM280 674l-56 -83h-100l106 137h93l110 -137h-100l-53 83v0v0z" />
    <glyph glyph-name="edieresis" unicode="&#xeb;" horiz-adv-x="556" 
d="M424 167l90 -11q-10 -38 -28.5 -68.5t-46.5 -53.5q-28 -24 -66 -35t-86 -11q-61 0 -107 17.5t-78 54.5q-31 36 -47 84.5t-16 108.5q0 59 15.5 108.5t46.5 88.5t76 58.5t103 19.5q7 0 14.5 -0.5t14.5 -1.5q8 -1 15.5 -1.5t14.5 -2.5q33 -7 64 -26.5t59 -49.5
q28 -31 41.5 -80t13.5 -117v-2v-2v-1.5v-1.5v-2v-2v-1.5v-1.5l-388 2q2 -48 15 -82t37 -55t50.5 -31.5t55.5 -10.5q23 0 41.5 4.5t31.5 13.5q14 9 24.5 19.5t17.5 21.5q4 7 7 13.5t6 12.5t5.5 12t3.5 10v2v0zM134 309h293q-1 16 -4 31t-8 28q-5 14 -12.5 25t-16.5 21
q-9 9 -20 16.5t-25 13.5t-29 9t-31 3q-31 0 -56 -9.5t-42 -28.5q-18 -19 -29 -39t-16 -43l-2 -8t-1 -7q-1 -4 -1 -7.5v-6.5v2v0zM143 611v100h90v-100h-90v0v0zM324 611v100h90v-100h-90v0v0z" />
    <glyph glyph-name="igrave" unicode="&#xec;" 
d="M95 0v518h88v-518h-88v0v0zM130 728l65 -137h-72l-108 137h115v0v0z" />
    <glyph glyph-name="iacute" unicode="&#xed;" 
d="M95 0v518h88v-518h-88v0v0zM84 591l65 137h115l-108 -137h-72v0v0z" />
    <glyph glyph-name="icircumflex" unicode="&#xee;" 
d="M95 0v518h88v-518h-88v0v0zM141 674l-56 -83h-100l106 137h93l110 -137h-100l-53 83v0v0z" />
    <glyph glyph-name="idieresis" unicode="&#xef;" 
d="M95 0v518h88v-518h-88v0v0zM4 611v100h90v-100h-90v0v0zM185 611v100h90v-100h-90v0v0z" />
    <glyph glyph-name="eth" unicode="&#xf0;" horiz-adv-x="556" 
d="M152 716h106q6 -7 12 -11.5l10 -7.5q5 -3 8.5 -6t7.5 -5q0 -1 0.5 -1.5t1.5 -0.5q0 -1 0.5 -1.5t1.5 -0.5l4 -4l4 -4t5 -4.5t6 -4.5l105 51l25 -47l-88 -42q36 -44 64.5 -88t49.5 -89q21 -46 31.5 -95.5t10.5 -102.5q0 -60 -16.5 -108.5t-49.5 -84.5t-76.5 -53.5
t-97.5 -17.5q-9 0 -18.5 0.5t-20.5 2.5l-10 2l-10 2q-6 1 -11 2t-10 3q-30 8 -57.5 27t-52.5 47q-25 29 -37 72.5t-12 103.5t11.5 104.5t35.5 73.5t50.5 48.5t54.5 28.5q5 2 9 3t9 2q4 1 8.5 1.5t8.5 1.5q8 2 16.5 2.5t16.5 0.5q19 0 34 -2t26 -7q11 -4 21.5 -9t20.5 -10
l2 4q-3 3 -5 7l-4 8q-2 5 -4.5 8.5t-4.5 7.5q-1 2 -2 3t-1 3q-1 1 -2 2.5t-2 2.5l-1.5 3l-1.5 3q-1 1 -1.5 2.5t-1.5 2.5q-2 3 -4 5.5t-4 5.5q-3 2 -5 5l-4 6q-4 6 -10 13l-12 14l-119 -53l-25 47l105 48q-7 5 -14 11t-13 11t-11.5 10t-10.5 9q-1 1 -2.5 2t-3.5 2
q-1 1 -2.5 2t-2.5 2q-2 2 -4.5 3.5t-4.5 3.5q-3 1 -5.5 3t-4.5 4q-5 3 -10.5 7t-11.5 8v2v0zM427 258q0 41 -8 73t-25 53q-16 21 -34 35.5t-38 21.5q-3 1 -6 1.5t-6 1.5q-4 1 -7 1.5t-6 1.5q-6 1 -12 1.5t-11 0.5q-31 0 -57 -12.5t-47 -36.5q-21 -25 -31.5 -63t-10.5 -89
q0 -38 6 -67t18 -49q12 -19 25.5 -33t28.5 -22q11 -7 21 -10.5t20 -5.5q10 -1 17.5 -2t12.5 -1h9.5t8.5 1q5 0 9.5 1.5t8.5 2.5q21 5 40.5 19t37.5 36q18 23 27 57.5t9 80.5v2v0z" />
    <glyph glyph-name="ntilde" unicode="&#xf1;" horiz-adv-x="556" 
d="M68 0v518h79v-73h2q8 10 15.5 19t16.5 16q8 8 16.5 14t17.5 11q14 8 27.5 12.5t26.5 6.5q14 2 24.5 3t18.5 1q6 0 12 -0.5t12 -1.5t12.5 -1.5t13.5 -2.5q16 -4 31 -10t29 -14t25.5 -19.5t19.5 -26.5l2 -4l2 -4q0 -2 1 -4l2 -4q2 -4 3.5 -8t2.5 -7q2 -6 3.5 -12t2.5 -12
q1 -7 2 -13t1 -12v-12.5t1 -13.5v-14v-15v-317h-88v315v5v6q-1 3 -1 6.5v7.5q0 8 -0.5 15.5t-2.5 15.5q-4 15 -11 28.5t-18 26.5t-30 19.5t-45 6.5h-1.5h-0.5h-1.5h-1.5q-18 -1 -35 -5.5t-34 -13.5q-16 -9 -27.5 -20.5t-18.5 -25.5q-1 -1 -1.5 -2l-0.5 -1q-1 -1 -1 -2v-2
t-0.5 -2l-0.5 -1q-1 -1 -1.5 -2t-0.5 -2q-4 -12 -6.5 -24t-3.5 -24t-1.5 -23t-0.5 -21v-281h-88v0v0zM378 717h64q-1 -25 -5.5 -42.5t-12.5 -28.5q-7 -12 -15.5 -19.5t-17.5 -12.5q-7 -4 -13.5 -6.5t-12.5 -3.5t-11 -1h-8q-7 0 -14.5 1t-16.5 4q-9 2 -19.5 6.5t-21.5 11.5
l-18 12q-8 3 -14 5.5t-11 3.5q-4 1 -7.5 1.5t-6.5 0.5h-1h-1q-1 -1 -2 -1h-3q-1 0 -2.5 -0.5t-2.5 -0.5l-3 -1.5l-3 -1.5q-4 -2 -7 -5t-6 -8q-3 -4 -4.5 -11t-1.5 -16v0v0v-1v0v0v0v0v0v-1v0v0v0l-65 2q-1 26 6 47t22 34q15 14 31.5 21t34.5 8h0.5h1.5h1.5h1.5h3.5h2.5h2h2
q0 -1 1 -1h2q5 -1 11 -2.5t12 -3.5t14.5 -5t18.5 -8q14 -7 23 -11t14 -6q5 -1 9.5 -2.5t8.5 -1.5h0.5h1.5h1.5h1.5q8 0 13.5 2t9.5 6q5 5 8 13t4 21v2v0z" />
    <glyph glyph-name="ograve" unicode="&#xf2;" horiz-adv-x="556" 
d="M35 259q0 9 0.5 19.5t1.5 22.5t3 24t5 25q2 6 3.5 12t3.5 12q2 5 4 11t5 12q5 12 12 23.5t15 21.5q14 18 31 32t36 24q20 10 40.5 16.5t41.5 10.5q5 0 10 0.5t10 1.5h5.5t5.5 1h4.5h5.5h6h7q3 -1 6.5 -1h6.5q6 -1 13 -1.5t14 -2.5q35 -7 67.5 -25.5t62.5 -48.5t45 -76
t15 -108q0 -37 -3.5 -65.5t-10.5 -49.5t-14 -37t-15 -27l-1.5 -1.5t-0.5 -1.5l-1.5 -1.5l-1.5 -1.5t-2 -2.5t-2 -3.5q-16 -19 -34.5 -34t-39.5 -26q-22 -10 -43.5 -15.5t-43.5 -8.5h-4t-4 -1h-4h-4h-4t-3 -1h-3.5h-3.5h-4.5h-4.5q-2 1 -4.5 1h-4.5h-4h-4q-3 1 -5 1h-4
q-22 3 -44 9t-43 16q-21 11 -38.5 25.5t-31.5 33.5q-6 7 -10.5 14.5t-8.5 14.5q-2 4 -3.5 8t-3.5 8q-1 3 -2.5 7t-3.5 8q-7 18 -10.5 35.5t-5.5 33.5q-1 17 -2 30.5t-1 23.5v2v0zM125 259q0 -44 7 -76.5t21 -53.5t30 -35.5t34 -22.5q8 -4 16 -6l16 -4q8 -1 15 -2t14 -1
q35 0 61.5 10.5t42.5 32.5q17 22 27.5 46t15.5 49q2 8 2.5 16.5t1.5 16.5q0 4 0.5 8t0.5 8q1 3 1 7v8q0 52 -12 89.5t-35 60.5q-24 23 -50.5 34.5t-55.5 11.5q-7 0 -13.5 -0.5t-14.5 -2.5q-7 -1 -14.5 -3.5t-15.5 -5.5q-18 -7 -34.5 -21.5t-31.5 -35.5t-22 -53.5t-7 -76.5v2
v0zM269 728l65 -137h-72l-108 137h115v0v0z" />
    <glyph glyph-name="oacute" unicode="&#xf3;" horiz-adv-x="556" 
d="M35 259q0 9 0.5 19.5t1.5 22.5t3 24t5 25q2 6 3.5 12t3.5 12q2 5 4 11t5 12q5 12 12 23.5t15 21.5q14 18 31 32t36 24q20 10 40.5 16.5t41.5 10.5q5 0 10 0.5t10 1.5h5.5t5.5 1h4.5h5.5h6h7q3 -1 6.5 -1h6.5q6 -1 13 -1.5t14 -2.5q35 -7 67.5 -25.5t62.5 -48.5t45 -76
t15 -108q0 -37 -3.5 -65.5t-10.5 -49.5t-14 -37t-15 -27l-1.5 -1.5t-0.5 -1.5l-1.5 -1.5l-1.5 -1.5t-2 -2.5t-2 -3.5q-16 -19 -34.5 -34t-39.5 -26q-22 -10 -43.5 -15.5t-43.5 -8.5h-4t-4 -1h-4h-4h-4t-3 -1h-3.5h-3.5h-4.5h-4.5q-2 1 -4.5 1h-4.5h-4h-4q-3 1 -5 1h-4
q-22 3 -44 9t-43 16q-21 11 -38.5 25.5t-31.5 33.5q-6 7 -10.5 14.5t-8.5 14.5q-2 4 -3.5 8t-3.5 8q-1 3 -2.5 7t-3.5 8q-7 18 -10.5 35.5t-5.5 33.5q-1 17 -2 30.5t-1 23.5v2v0zM125 259q0 -44 7 -76.5t21 -53.5t30 -35.5t34 -22.5q8 -4 16 -6l16 -4q8 -1 15 -2t14 -1
q35 0 61.5 10.5t42.5 32.5q17 22 27.5 46t15.5 49q2 8 2.5 16.5t1.5 16.5q0 4 0.5 8t0.5 8q1 3 1 7v8q0 52 -12 89.5t-35 60.5q-24 23 -50.5 34.5t-55.5 11.5q-7 0 -13.5 -0.5t-14.5 -2.5q-7 -1 -14.5 -3.5t-15.5 -5.5q-18 -7 -34.5 -21.5t-31.5 -35.5t-22 -53.5t-7 -76.5v2
v0zM223 591l65 137h115l-108 -137h-72v0v0z" />
    <glyph glyph-name="ocircumflex" unicode="&#xf4;" horiz-adv-x="556" 
d="M35 259q0 9 0.5 19.5t1.5 22.5t3 24t5 25q2 6 3.5 12t3.5 12q2 5 4 11t5 12q5 12 12 23.5t15 21.5q14 18 31 32t36 24q20 10 40.5 16.5t41.5 10.5q5 0 10 0.5t10 1.5h5.5t5.5 1h4.5h5.5h6h7q3 -1 6.5 -1h6.5q6 -1 13 -1.5t14 -2.5q35 -7 67.5 -25.5t62.5 -48.5t45 -76
t15 -108q0 -37 -3.5 -65.5t-10.5 -49.5t-14 -37t-15 -27l-1.5 -1.5t-0.5 -1.5l-1.5 -1.5l-1.5 -1.5t-2 -2.5t-2 -3.5q-16 -19 -34.5 -34t-39.5 -26q-22 -10 -43.5 -15.5t-43.5 -8.5h-4t-4 -1h-4h-4h-4t-3 -1h-3.5h-3.5h-4.5h-4.5q-2 1 -4.5 1h-4.5h-4h-4q-3 1 -5 1h-4
q-22 3 -44 9t-43 16q-21 11 -38.5 25.5t-31.5 33.5q-6 7 -10.5 14.5t-8.5 14.5q-2 4 -3.5 8t-3.5 8q-1 3 -2.5 7t-3.5 8q-7 18 -10.5 35.5t-5.5 33.5q-1 17 -2 30.5t-1 23.5v2v0zM125 259q0 -44 7 -76.5t21 -53.5t30 -35.5t34 -22.5q8 -4 16 -6l16 -4q8 -1 15 -2t14 -1
q35 0 61.5 10.5t42.5 32.5q17 22 27.5 46t15.5 49q2 8 2.5 16.5t1.5 16.5q0 4 0.5 8t0.5 8q1 3 1 7v8q0 52 -12 89.5t-35 60.5q-24 23 -50.5 34.5t-55.5 11.5q-7 0 -13.5 -0.5t-14.5 -2.5q-7 -1 -14.5 -3.5t-15.5 -5.5q-18 -7 -34.5 -21.5t-31.5 -35.5t-22 -53.5t-7 -76.5v2
v0zM280 674l-56 -83h-100l106 137h93l110 -137h-100l-53 83v0v0z" />
    <glyph glyph-name="otilde" unicode="&#xf5;" horiz-adv-x="556" 
d="M35 259q0 9 0.5 19.5t1.5 22.5t3 24t5 25q2 6 3.5 12t3.5 12q2 5 4 11t5 12q5 12 12 23.5t15 21.5q14 18 31 32t36 24q20 10 40.5 16.5t41.5 10.5q5 0 10 0.5t10 1.5h5.5t5.5 1h4.5h5.5h6h7q3 -1 6.5 -1h6.5q6 -1 13 -1.5t14 -2.5q35 -7 67.5 -25.5t62.5 -48.5t45 -76
t15 -108q0 -37 -3.5 -65.5t-10.5 -49.5t-14 -37t-15 -27l-1.5 -1.5t-0.5 -1.5l-1.5 -1.5l-1.5 -1.5t-2 -2.5t-2 -3.5q-16 -19 -34.5 -34t-39.5 -26q-22 -10 -43.5 -15.5t-43.5 -8.5h-4t-4 -1h-4h-4h-4t-3 -1h-3.5h-3.5h-4.5h-4.5q-2 1 -4.5 1h-4.5h-4h-4q-3 1 -5 1h-4
q-22 3 -44 9t-43 16q-21 11 -38.5 25.5t-31.5 33.5q-6 7 -10.5 14.5t-8.5 14.5q-2 4 -3.5 8t-3.5 8q-1 3 -2.5 7t-3.5 8q-7 18 -10.5 35.5t-5.5 33.5q-1 17 -2 30.5t-1 23.5v2v0zM125 259q0 -44 7 -76.5t21 -53.5t30 -35.5t34 -22.5q8 -4 16 -6l16 -4q8 -1 15 -2t14 -1
q35 0 61.5 10.5t42.5 32.5q17 22 27.5 46t15.5 49q2 8 2.5 16.5t1.5 16.5q0 4 0.5 8t0.5 8q1 3 1 7v8q0 52 -12 89.5t-35 60.5q-24 23 -50.5 34.5t-55.5 11.5q-7 0 -13.5 -0.5t-14.5 -2.5q-7 -1 -14.5 -3.5t-15.5 -5.5q-18 -7 -34.5 -21.5t-31.5 -35.5t-22 -53.5t-7 -76.5v2
v0zM378 717h64q-1 -25 -5.5 -42.5t-12.5 -28.5q-7 -12 -15.5 -19.5t-17.5 -12.5q-7 -4 -13.5 -6.5t-12.5 -3.5t-11 -1h-8q-7 0 -14.5 1t-16.5 4q-9 2 -19.5 6.5t-21.5 11.5l-18 12q-8 3 -14 5.5t-11 3.5q-4 1 -7.5 1.5t-6.5 0.5h-1h-1q-1 -1 -2 -1h-3q-1 0 -2.5 -0.5
t-2.5 -0.5l-3 -1.5l-3 -1.5q-4 -2 -7 -5t-6 -8q-3 -4 -4.5 -11t-1.5 -16v0v0v-1v0v0v0v0v0v-1v0v0v0l-65 2q-1 26 6 47t22 34q15 14 31.5 21t34.5 8h0.5h1.5h1.5h1.5h3.5h2.5h2h2q0 -1 1 -1h2q5 -1 11 -2.5t12 -3.5t14.5 -5t18.5 -8q14 -7 23 -11t14 -6q5 -1 9.5 -2.5
t8.5 -1.5h0.5h1.5h1.5h1.5q8 0 13.5 2t9.5 6q5 5 8 13t4 21v2v0z" />
    <glyph glyph-name="odieresis" unicode="&#xf6;" horiz-adv-x="556" 
d="M35 259q0 9 0.5 19.5t1.5 22.5t3 24t5 25q2 6 3.5 12t3.5 12q2 5 4 11t5 12q5 12 12 23.5t15 21.5q14 18 31 32t36 24q20 10 40.5 16.5t41.5 10.5q5 0 10 0.5t10 1.5h5.5t5.5 1h4.5h5.5h6h7q3 -1 6.5 -1h6.5q6 -1 13 -1.5t14 -2.5q35 -7 67.5 -25.5t62.5 -48.5t45 -76
t15 -108q0 -37 -3.5 -65.5t-10.5 -49.5t-14 -37t-15 -27l-1.5 -1.5t-0.5 -1.5l-1.5 -1.5l-1.5 -1.5t-2 -2.5t-2 -3.5q-16 -19 -34.5 -34t-39.5 -26q-22 -10 -43.5 -15.5t-43.5 -8.5h-4t-4 -1h-4h-4h-4t-3 -1h-3.5h-3.5h-4.5h-4.5q-2 1 -4.5 1h-4.5h-4h-4q-3 1 -5 1h-4
q-22 3 -44 9t-43 16q-21 11 -38.5 25.5t-31.5 33.5q-6 7 -10.5 14.5t-8.5 14.5q-2 4 -3.5 8t-3.5 8q-1 3 -2.5 7t-3.5 8q-7 18 -10.5 35.5t-5.5 33.5q-1 17 -2 30.5t-1 23.5v2v0zM125 259q0 -44 7 -76.5t21 -53.5t30 -35.5t34 -22.5q8 -4 16 -6l16 -4q8 -1 15 -2t14 -1
q35 0 61.5 10.5t42.5 32.5q17 22 27.5 46t15.5 49q2 8 2.5 16.5t1.5 16.5q0 4 0.5 8t0.5 8q1 3 1 7v8q0 52 -12 89.5t-35 60.5q-24 23 -50.5 34.5t-55.5 11.5q-7 0 -13.5 -0.5t-14.5 -2.5q-7 -1 -14.5 -3.5t-15.5 -5.5q-18 -7 -34.5 -21.5t-31.5 -35.5t-22 -53.5t-7 -76.5v2
v0zM143 611v100h90v-100h-90v0v0zM324 611v100h90v-100h-90v0v0z" />
    <glyph glyph-name="divide" unicode="&#xf7;" 
 />
    <glyph glyph-name="oslash" unicode="&#xf8;" horiz-adv-x="611" 
d="M449 488l48 62l47 -34l-52 -67q2 -4 4 -7l4 -6l4 -6l4 -6q8 -12 15 -27.5t13 -34.5t9.5 -45.5t3.5 -59.5q0 -26 -3 -51t-9 -49t-16 -45.5t-24 -39.5t-31.5 -32t-37.5 -24t-40.5 -15.5t-41.5 -9.5q-5 0 -10.5 -0.5t-10.5 -1.5h-5.5t-4.5 -1h-5.5h-4.5q-21 0 -38 2t-31 6
q-13 3 -24.5 7t-19.5 9l-7 3.5t-6 3.5q-1 1 -2.5 2t-3.5 2q-1 0 -2.5 1t-2.5 2l-51 -65l-46 35l53 69q-12 13 -23 30t-20 39q-9 21 -13.5 50t-4.5 66v4.5v5.5v6v6q0 11 1 22t3 23q1 11 3.5 22t5.5 22q6 22 16 42t24 38q15 20 34 35.5t41 25.5q22 11 44.5 17t46.5 8h2t3 1
h2.5h2.5h6h6q20 0 37 -2t31 -7q14 -4 27 -8.5t23 -9.5q4 -2 7.5 -4t6.5 -4q2 -1 3.5 -2t3.5 -2q1 -1 3 -1.5t3 -1.5v2v0zM436 376l-219 -285q1 -2 2 -3.5t2 -2.5t2 -1.5t2 -0.5q6 -5 13.5 -9.5t16.5 -8.5q8 -4 20 -5.5t28 -1.5q6 0 13 0.5t14 1.5q8 2 15.5 4t14.5 5
q18 7 35 21t33 35q15 21 23 54t8 78q0 19 -1 34t-3 25q-2 11 -5 21t-6 19l-2 4l-2 4t-2 4.5t-2 5.5v2v0zM179 137l221 286q-1 -1 -2 -0.5t-1 1.5q-1 0 -2 0.5t-2 1.5q-2 2 -4 3.5t-4 2.5q-7 5 -15.5 8.5t-17.5 7.5t-20.5 6t-25.5 2q-7 0 -14.5 -1t-15.5 -3q-9 -1 -18 -4
t-18 -8q-16 -8 -31 -22.5t-29 -35.5q-13 -21 -20 -52.5t-7 -72.5v-4.5v-4.5v-5.5v-4.5q0 -4 0.5 -8.5t1.5 -9.5q1 -11 3 -22t5 -22t7 -21.5t9 -19.5v2v0z" />
    <glyph glyph-name="ugrave" unicode="&#xf9;" horiz-adv-x="556" 
d="M408 0v76h-2q-7 -11 -13.5 -19.5t-13.5 -15.5t-14 -12.5t-14 -10.5q-16 -11 -32.5 -17t-31.5 -8t-26 -3.5t-18 -1.5h-5.5h-4.5q-3 1 -5.5 1h-5.5q-5 1 -10.5 1.5t-10.5 1.5q-17 4 -33.5 9t-31.5 14q-15 8 -26.5 20t-19.5 27q-1 2 -2.5 4.5t-2.5 5.5q-1 2 -2 4.5t-2 5.5
q-4 10 -7 21t-5 23q-1 12 -2 29.5t-1 39.5v323h88v-287q0 -34 1 -57t4 -37q2 -13 8 -24.5t15 -20.5q8 -7 17 -13t19 -10q11 -4 21.5 -5.5t21.5 -1.5q19 0 37 4.5t35 14.5q17 9 29.5 21.5t19.5 28.5q6 13 9.5 26.5t4.5 26.5q2 14 2.5 27.5t0.5 27.5v279h88v-518h-79v0v0z
M269 728l65 -137h-72l-108 137h115v0v0z" />
    <glyph glyph-name="uacute" unicode="&#xfa;" horiz-adv-x="556" 
d="M408 0v76h-2q-7 -11 -13.5 -19.5t-13.5 -15.5t-14 -12.5t-14 -10.5q-16 -11 -32.5 -17t-31.5 -8t-26 -3.5t-18 -1.5h-5.5h-4.5q-3 1 -5.5 1h-5.5q-5 1 -10.5 1.5t-10.5 1.5q-17 4 -33.5 9t-31.5 14q-15 8 -26.5 20t-19.5 27q-1 2 -2.5 4.5t-2.5 5.5q-1 2 -2 4.5t-2 5.5
q-4 10 -7 21t-5 23q-1 12 -2 29.5t-1 39.5v323h88v-287q0 -34 1 -57t4 -37q2 -13 8 -24.5t15 -20.5q8 -7 17 -13t19 -10q11 -4 21.5 -5.5t21.5 -1.5q19 0 37 4.5t35 14.5q17 9 29.5 21.5t19.5 28.5q6 13 9.5 26.5t4.5 26.5q2 14 2.5 27.5t0.5 27.5v279h88v-518h-79v0v0z
M223 591l65 137h115l-108 -137h-72v0v0z" />
    <glyph glyph-name="ucircumflex" unicode="&#xfb;" horiz-adv-x="556" 
d="M408 0v76h-2q-7 -11 -13.5 -19.5t-13.5 -15.5t-14 -12.5t-14 -10.5q-16 -11 -32.5 -17t-31.5 -8t-26 -3.5t-18 -1.5h-5.5h-4.5q-3 1 -5.5 1h-5.5q-5 1 -10.5 1.5t-10.5 1.5q-17 4 -33.5 9t-31.5 14q-15 8 -26.5 20t-19.5 27q-1 2 -2.5 4.5t-2.5 5.5q-1 2 -2 4.5t-2 5.5
q-4 10 -7 21t-5 23q-1 12 -2 29.5t-1 39.5v323h88v-287q0 -34 1 -57t4 -37q2 -13 8 -24.5t15 -20.5q8 -7 17 -13t19 -10q11 -4 21.5 -5.5t21.5 -1.5q19 0 37 4.5t35 14.5q17 9 29.5 21.5t19.5 28.5q6 13 9.5 26.5t4.5 26.5q2 14 2.5 27.5t0.5 27.5v279h88v-518h-79v0v0z
M280 674l-56 -83h-100l106 137h93l110 -137h-100l-53 83v0v0z" />
    <glyph glyph-name="udieresis" unicode="&#xfc;" horiz-adv-x="556" 
d="M408 0v76h-2q-7 -11 -13.5 -19.5t-13.5 -15.5t-14 -12.5t-14 -10.5q-16 -11 -32.5 -17t-31.5 -8t-26 -3.5t-18 -1.5h-5.5h-4.5q-3 1 -5.5 1h-5.5q-5 1 -10.5 1.5t-10.5 1.5q-17 4 -33.5 9t-31.5 14q-15 8 -26.5 20t-19.5 27q-1 2 -2.5 4.5t-2.5 5.5q-1 2 -2 4.5t-2 5.5
q-4 10 -7 21t-5 23q-1 12 -2 29.5t-1 39.5v323h88v-287q0 -34 1 -57t4 -37q2 -13 8 -24.5t15 -20.5q8 -7 17 -13t19 -10q11 -4 21.5 -5.5t21.5 -1.5q19 0 37 4.5t35 14.5q17 9 29.5 21.5t19.5 28.5q6 13 9.5 26.5t4.5 26.5q2 14 2.5 27.5t0.5 27.5v279h88v-518h-79v0v0z
M143 611v100h90v-100h-90v0v0zM324 611v100h90v-100h-90v0v0z" />
    <glyph glyph-name="yacute" unicode="&#xfd;" 
 />
    <glyph glyph-name="thorn" unicode="&#xfe;" horiz-adv-x="556" 
d="M68 -199v915h88v-252q11 11 24.5 22t28.5 21q15 11 37 16t52 5q55 0 96 -20t69 -59q27 -40 41 -87t14 -101q0 -67 -16.5 -117.5t-49.5 -83.5q-33 -34 -69.5 -51.5t-75.5 -20.5h-4h-4h-2.5h-3.5q-25 0 -45 4.5t-34 11.5q-15 8 -27 18t-22 20l-1.5 1.5t-0.5 1.5
q-1 0 -1.5 0.5l-1.5 1.5l-1.5 1.5t-0.5 1.5q-1 0 -1.5 0.5t-0.5 1.5v-251h-88v0v0zM147 256q0 -49 8 -83.5t24 -55.5t34 -34.5t37 -18.5q5 -1 9.5 -2.5t8.5 -1.5q5 -1 9.5 -1h8.5q6 0 12 0.5t13 1.5l14 4t14 5q17 8 32 22t29 36q14 21 21 54.5t7 78.5q0 50 -9.5 86.5
t-29.5 58.5q-19 23 -40 36t-44 16h-2t-2 1h-2h-2h-2h-1h-2h-2q-31 0 -57 -14t-46 -43q-20 -28 -30 -65.5t-10 -82.5v2v0z" />
    <glyph glyph-name="ydieresis" unicode="&#xff;" horiz-adv-x="500" 
d="M62 -200l-9 83q2 -1 4.5 -1.5t5.5 -1.5q3 0 6 -0.5t6 -1.5q6 -2 13 -2.5t15 -0.5q20 0 34.5 4.5t23.5 13.5t17 21.5t15 29.5q1 2 1.5 4t1.5 4q1 3 1.5 5t1.5 4t1.5 4t1.5 4q1 3 1.5 5t1.5 4v0.5t1 0.5v1.5v0.5v0.5t1 0.5v1.5v0.5v0h1v1v0v0v0v1v0q1 2 1.5 4t1.5 4
q1 1 1.5 2.5t0.5 2.5l-197 519h95l108 -300q8 -23 14 -41.5t10 -33.5q5 -15 8 -26.5t5 -20.5l2 2q1 4 2 8.5t2 9.5q1 4 2.5 9t2.5 9q1 5 2.5 9.5t2.5 9.5q2 4 3.5 9t2.5 9q2 5 3.5 10.5t3.5 11.5q2 5 4 10.5t4 11.5l110 303h89l-198 -527q-1 -1 -1.5 -2.5t-0.5 -2.5
q-1 -2 -1.5 -4t-1.5 -4t-1.5 -3.5t-0.5 -2.5q-1 -2 -1.5 -3.5t-1.5 -2.5q-1 -2 -1.5 -3.5t-0.5 -3.5q-1 -1 -1.5 -3t-0.5 -3q-13 -34 -27.5 -62.5t-31.5 -52.5q-16 -24 -41.5 -36t-60.5 -12q-7 0 -13.5 0.5t-12.5 1.5q-3 1 -5.5 1.5t-5.5 0.5q-2 1 -4.5 1.5t-4.5 1.5
q-1 1 -2.5 1.5t-3.5 0.5h-1.5h-0.5q-1 1 -1.5 1h-1.5v0v0zM115 611v100h90v-100h-90v0v0zM296 611v100h90v-100h-90v0v0z" />
    <glyph glyph-name="Abreve" unicode="&#x102;" 
 />
    <glyph glyph-name="abreve" unicode="&#x103;" 
 />
    <glyph glyph-name="Aogonek" unicode="&#x104;" 
 />
    <glyph glyph-name="aogonek" unicode="&#x105;" 
 />
    <glyph glyph-name="Cacute" unicode="&#x106;" 
 />
    <glyph glyph-name="cacute" unicode="&#x107;" 
 />
    <glyph glyph-name="Ccaron" unicode="&#x10c;" 
 />
    <glyph glyph-name="ccaron" unicode="&#x10d;" 
 />
    <glyph glyph-name="Dcaron" unicode="&#x10e;" 
 />
    <glyph glyph-name="dcaron" unicode="&#x10f;" 
 />
    <glyph glyph-name="Dslash" unicode="&#x110;" 
 />
    <glyph glyph-name="dslash" unicode="&#x111;" 
 />
    <glyph glyph-name="Eogonek" unicode="&#x118;" 
 />
    <glyph glyph-name="eogonek" unicode="&#x119;" 
 />
    <glyph glyph-name="Ecaron" unicode="&#x11a;" 
 />
    <glyph glyph-name="ecaron" unicode="&#x11b;" 
 />
    <glyph glyph-name="Gbreve" unicode="&#x11e;" 
 />
    <glyph glyph-name="gbreve" unicode="&#x11f;" 
 />
    <glyph glyph-name="Idot" unicode="&#x130;" 
 />
    <glyph glyph-name="dotlessi" unicode="&#x131;" 
d="M95 0v518h88v-518h-88v0v0z" />
    <glyph glyph-name="Lacute" unicode="&#x139;" 
 />
    <glyph glyph-name="lacute" unicode="&#x13a;" 
 />
    <glyph glyph-name="Lcaron" unicode="&#x13d;" 
 />
    <glyph glyph-name="lcaron" unicode="&#x13e;" 
 />
    <glyph glyph-name="Ldot" unicode="&#x13f;" 
 />
    <glyph glyph-name="ldot" unicode="&#x140;" 
 />
    <glyph glyph-name="Lslash" unicode="&#x141;" horiz-adv-x="556" 
d="M75 276l-71 -60v81l71 61v358h95v-278l161 138v-82l-161 -137v-272h353v-85h-448v276v0v0z" />
    <glyph glyph-name="lslash" unicode="&#x142;" horiz-adv-x="222" 
d="M67 282l-64 -55v77l64 55v357h88v-282l64 54v-77l-64 -54v-357h-88v282v0v0z" />
    <glyph glyph-name="Nacute" unicode="&#x143;" 
 />
    <glyph glyph-name="nacute" unicode="&#x144;" 
 />
    <glyph glyph-name="Ncaron" unicode="&#x147;" 
 />
    <glyph glyph-name="ncaron" unicode="&#x148;" 
 />
    <glyph glyph-name="Odblacute" unicode="&#x150;" 
 />
    <glyph glyph-name="odblacute" unicode="&#x151;" 
 />
    <glyph glyph-name="OE" unicode="&#x152;" horiz-adv-x="1000" 
d="M968 85v-85h-420v103h-2q-9 -17 -18 -30t-20 -24q-10 -10 -20 -18.5t-20 -14.5q-17 -10 -33.5 -15.5t-31.5 -7.5q-16 -2 -28.5 -3.5t-22.5 -1.5q-71 0 -122.5 22t-83.5 68q-32 45 -51.5 95t-26.5 105q-1 10 -2.5 20t-1.5 20q-1 10 -1 19.5v19.5q0 73 16.5 137.5
t49.5 119.5q33 56 88.5 84t134.5 28q27 0 53.5 -5.5t51.5 -16.5q26 -11 47.5 -33t40.5 -54l2 2v97h406v-85h-317v-218h292v-85h-292v-243h332v0v0zM351 652q-22 -2 -43.5 -8.5t-41.5 -18.5q-19 -12 -35 -27.5t-27 -35.5q-7 -13 -13 -27t-11 -30q-4 -16 -7.5 -31.5
t-5.5 -32.5q-1 -12 -2.5 -24t-2.5 -23q-1 -12 -1 -22.5v-21.5q0 -76 14.5 -130.5t42.5 -89.5q29 -34 62 -51t71 -17q23 0 44.5 6t40.5 18q20 12 35.5 28.5t28.5 37.5q8 12 14 26.5t10 30.5q5 16 8 32.5t5 32.5q2 11 2.5 22.5t1.5 22.5v11.5t1 10.5v10.5v10.5t-0.5 17
t-1.5 30t-4 38t-8 41q-1 5 -2.5 9.5t-3.5 9.5q-1 4 -2.5 9t-3.5 9q-3 9 -7 18t-9 17q-14 23 -31 40.5t-37 27.5q-19 11 -39.5 16.5t-41.5 5.5v2v0z" />
    <glyph glyph-name="oe" unicode="&#x153;" horiz-adv-x="944" 
d="M904 236h-382q0 -40 10.5 -71.5t31.5 -56.5t49 -37t63 -12q22 0 39.5 4t30.5 13t23 19t17 20q5 8 9 15.5t7 14.5q3 8 5 13t3 9l88 -11q-9 -34 -21.5 -59.5t-29.5 -42.5t-35 -29.5t-37 -20.5q-14 -4 -27.5 -7.5t-26.5 -4.5q-13 -2 -24.5 -3t-21.5 -1t-19.5 0.5t-20.5 2.5
q-5 1 -10.5 2t-10.5 2q-6 1 -11.5 2t-10.5 3q-16 4 -32 11t-31 17q-16 11 -29.5 24.5t-24.5 31.5q-7 -9 -13.5 -16.5t-13.5 -13.5q-7 -7 -13.5 -12.5t-12.5 -10.5q-22 -16 -43 -25t-41 -12q-19 -3 -33.5 -4.5t-22.5 -1.5q-50 0 -93 15.5t-79 48.5q-36 32 -54 82t-18 117
t16.5 118t49.5 87t78 54t101 18q33 0 60 -6t48 -17q21 -12 38 -24.5t29 -26.5q1 -1 2 -3t3 -3q1 -2 2 -3.5t2 -3.5q2 -3 4.5 -6t3.5 -6q17 24 37 42t45 31t52 19.5t56 6.5h4.5h4.5q2 -1 4.5 -1h4.5h4.5h4.5q2 -1 4.5 -1h4.5q28 -4 55 -15t52 -29q26 -18 45 -45t32 -64
q6 -19 10.5 -36t5.5 -33q2 -16 2.5 -29.5t0.5 -24.5v-4v-4v-4v-4v2v0zM128 260q0 -43 6.5 -74.5t19.5 -51.5q13 -21 27 -35.5t30 -22.5q10 -6 19.5 -9t18.5 -5q9 -1 17 -2t14 -1q29 0 55.5 12t50.5 36q23 24 35 62t12 90q0 46 -9 80t-27 56t-38 36t-41 20q-5 2 -10 2.5
t-10 1.5h-4.5t-4.5 1h-4.5h-4.5q-37 0 -65.5 -15t-48.5 -44q-19 -30 -28.5 -64.5t-9.5 -74.5v2v0zM525 308h287q-3 28 -9.5 49.5t-17.5 37.5q-10 15 -22 26t-24 18q-10 6 -20.5 9.5t-19.5 4.5q-10 2 -16.5 2.5t-11.5 0.5h-4h-4q-3 -1 -5 -1h-4q-4 -1 -8.5 -1.5t-8.5 -1.5
q-20 -4 -38 -15t-35 -28q-16 -17 -26 -42.5t-13 -60.5v2v0z" />
    <glyph glyph-name="Racute" unicode="&#x154;" 
 />
    <glyph glyph-name="racute" unicode="&#x155;" 
 />
    <glyph glyph-name="Rcaron" unicode="&#x158;" 
 />
    <glyph glyph-name="rcaron" unicode="&#x159;" 
 />
    <glyph glyph-name="Sacute" unicode="&#x15a;" 
 />
    <glyph glyph-name="sacute" unicode="&#x15b;" 
 />
    <glyph glyph-name="Scedilla" unicode="&#x15e;" 
 />
    <glyph glyph-name="scedilla" unicode="&#x15f;" 
 />
    <glyph glyph-name="Scaron" unicode="&#x160;" horiz-adv-x="667" 
d="M45 230l90 8q0 -7 1 -13.5t2 -14.5q2 -8 4 -16.5t5 -16.5q0 -1 0.5 -2t1.5 -1q0 -1 0.5 -2t0.5 -2t0.5 -2t1.5 -1q0 -1 0.5 -2t1.5 -2q8 -16 19.5 -29t25.5 -22q14 -10 29 -16.5t31 -11.5l12 -4t12 -3q5 -1 11 -2l12 -2q11 -1 21 -1.5t19 -0.5q37 0 68.5 7.5t57.5 23.5
q26 15 39 38t13 53q0 25 -8.5 43.5t-25.5 30.5t-42.5 22.5t-60.5 20.5q-9 2 -18.5 4.5t-19.5 5.5q-10 2 -20.5 4.5t-21.5 5.5q-9 2 -18.5 4t-19.5 5q-10 2 -19.5 5t-19.5 7q-30 9 -57 24t-51 34q-25 20 -37 49.5t-12 69.5q0 41 16.5 76.5t49.5 63.5q33 29 79 43.5t106 14.5
q58 0 105.5 -14t84.5 -41q38 -27 57.5 -67t21.5 -93l-91 -5q-1 4 -1.5 9.5t-2.5 11.5q-1 6 -2.5 12.5t-3.5 13.5q-7 17 -19 32t-30 28q-18 14 -46.5 21t-68.5 7h-6.5h-7.5q-4 -1 -7.5 -1h-7.5t-8 -0.5t-7 -1.5q-4 -1 -8 -1.5t-8 -1.5q-19 -4 -37 -11.5t-35 -18.5
q-16 -12 -24.5 -29.5t-8.5 -41.5q0 -20 6.5 -35.5t19.5 -26.5q14 -11 38 -21.5t59 -19.5q3 -1 5.5 -1.5t5.5 -0.5q3 -1 6 -1.5t6 -1.5q6 -1 12 -2.5t13 -3.5q3 -1 5.5 -1.5t5.5 -0.5q2 -1 5 -1.5t6 -1.5t5.5 -1.5t5.5 -0.5q3 -1 6 -1.5t6 -1.5q44 -10 84.5 -26t77.5 -37
t55.5 -57.5t18.5 -89.5q0 -45 -18 -82.5t-54 -68.5t-84 -46t-109 -15q-64 0 -113 10t-81 32q-33 22 -56 49.5t-37 60.5q-6 14 -9.5 27t-5.5 24q-1 11 -2 20.5t-1 16.5v2v0zM332 815l56 83h100l-106 -137h-93l-110 137h100l53 -83v0v0z" />
    <glyph glyph-name="scaron" unicode="&#x161;" horiz-adv-x="500" 
d="M31 155l87 13q3 -28 13 -48t26 -34q17 -14 40.5 -21t54.5 -7q27 0 47 4.5t33 13.5q14 9 22.5 19.5t12.5 21.5q1 3 1.5 6t1.5 6v3.5t1 2.5v3.5v2.5q0 16 -6 27.5t-18 18.5t-27.5 13t-35.5 11l-58 16q-3 -1 -6 -0.5t-5 1.5q-3 0 -6 0.5t-6 1.5q-6 2 -11.5 3.5t-10.5 3.5
q-25 8 -49 19t-45 26t-31.5 39.5t-10.5 57.5q0 30 12 56t36 48q24 23 60 34t83 11q42 0 73.5 -6.5t52.5 -18.5q21 -13 35.5 -26.5t23.5 -28.5q5 -10 9 -19t6 -18t3.5 -16t2.5 -12l-86 -10q-3 17 -9 30.5t-16 22.5t-20.5 15t-21.5 9q-7 2 -13 3l-12 2h-6t-6 1h-5.5h-4.5h-4.5
h-5.5q-3 -1 -6 -1h-6q-6 -1 -12.5 -1.5t-13.5 -2.5q-12 -3 -23 -7.5t-21 -11.5t-15 -18t-5 -25q0 -12 4 -21.5t11 -15.5q8 -7 20.5 -12.5t29.5 -10.5q6 -2 12.5 -4t13.5 -4t14.5 -4t16.5 -4q7 -2 13.5 -4t13.5 -4q7 -1 13.5 -2.5t12.5 -3.5q38 -10 67.5 -23t48.5 -28
q20 -15 30 -39t10 -59q0 -32 -13.5 -60.5t-40.5 -53.5t-65.5 -36.5t-88.5 -11.5q-46 0 -79.5 7t-56.5 21q-22 15 -38.5 31.5t-25.5 34.5q-5 10 -9 19.5t-6 18.5q-3 9 -4.5 17.5t-2.5 15.5v2v0zM249 645l56 83h100l-106 -137h-93l-110 137h100l53 -83v0v0z" />
    <glyph glyph-name="Tcedilla" unicode="&#x162;" 
 />
    <glyph glyph-name="tcedilla" unicode="&#x163;" 
 />
    <glyph glyph-name="Tcaron" unicode="&#x164;" 
 />
    <glyph glyph-name="tcaron" unicode="&#x165;" 
 />
    <glyph glyph-name="Uring" unicode="&#x16e;" 
 />
    <glyph glyph-name="uring" unicode="&#x16f;" 
 />
    <glyph glyph-name="udblacute" unicode="&#x170;" 
 />
    <glyph glyph-name="Udblacute" unicode="&#x171;" 
 />
    <glyph glyph-name="Ydieresis" unicode="&#x178;" horiz-adv-x="667" 
d="M281 0v303l-276 413h115l141 -216q8 -14 15 -25.5t13 -20.5q5 -9 10.5 -17.5t10.5 -16.5v-0.5t1 -0.5v-1.5v-0.5q0 -1 0.5 -1.5l1.5 -1.5q2 -4 4.5 -8.5t5.5 -9.5q1 -2 2.5 -4.5t2.5 -4.5q2 -3 3.5 -5.5t2.5 -4.5q2 5 4.5 9.5t5.5 8.5q2 2 3 4.5t3 4.5q1 2 2.5 4.5
t2.5 4.5q1 1 1.5 2t1.5 2v1.5t1 1.5l0.5 0.5l1.5 1.5q9 15 17.5 28.5t15.5 25.5q8 12 12.5 19t5.5 8l139 213h110l-285 -413v-303h-95v0v0zM198 781v100h90v-100h-90v0v0zM379 781v100h90v-100h-90v0v0z" />
    <glyph glyph-name="Zacute" unicode="&#x179;" 
 />
    <glyph glyph-name="zacute" unicode="&#x17a;" 
 />
    <glyph glyph-name="Zdot" unicode="&#x17b;" 
 />
    <glyph glyph-name="zdot" unicode="&#x17c;" 
 />
    <glyph glyph-name="Zcaron" unicode="&#x17d;" 
 />
    <glyph glyph-name="zcaron" unicode="&#x17e;" 
 />
    <glyph glyph-name="florin" unicode="&#x192;" horiz-adv-x="556" 
d="M25 -198l16 76q14 -3 25.5 -5t20.5 -3q8 -2 15.5 -2.5t13.5 -0.5q19 0 31 6t17 17q5 12 8.5 25t5.5 27l87 498h-98l11 68h99l11 66q1 3 1.5 7.5t1.5 9.5t2.5 10t2.5 10q5 20 14 38.5t22 34.5q14 17 37.5 25t57.5 8q13 0 25 -1.5t23 -3.5t21 -4.5t19 -5.5h0.5h1.5
q0 -1 0.5 -1h1.5h0.5h1.5q0 -1 0.5 -1h1.5h9l-17 -75q-6 0 -11.5 1t-9.5 2q-5 0 -9 1l-8 2q-7 2 -14.5 2.5t-13.5 1.5h-1.5h-0.5h-1.5h-1.5h-2h-2q-16 0 -27.5 -4.5t-16.5 -12.5q-6 -9 -10.5 -21t-7.5 -29v-1.5v-1.5q-1 -1 -1 -1.5v-1.5v-1.5v-0.5q-1 -1 -1 -1.5v-1.5
l-10 -49h100l-12 -68h-100l-93 -523q-6 -32 -16 -56t-24 -40q-14 -15 -36 -23t-51 -8q-3 0 -11.5 0.5t-22.5 1.5t-33 3t-42 7v0v0z" />
    <glyph glyph-name="hungarumlaut" unicode="&#x2ba;" horiz-adv-x="333" 
d="M28 591l65 137h115l-108 -137h-72v0v0zM193 591l65 137h115l-108 -137h-72v0v0z" />
    <glyph glyph-name="tilde" unicode="&#x2c6;" horiz-adv-x="333" 
d="M266 717h64q-1 -25 -5.5 -42.5t-12.5 -28.5q-7 -12 -15.5 -19.5t-17.5 -12.5q-7 -4 -13.5 -6.5t-12.5 -3.5t-11 -1h-8q-7 0 -14.5 1t-16.5 4q-9 2 -19.5 6.5t-21.5 11.5l-18 12q-8 3 -14 5.5t-11 3.5q-4 1 -7.5 1.5t-6.5 0.5h-1h-1q-1 -1 -2 -1h-3q-1 0 -2.5 -0.5
t-2.5 -0.5l-3 -1.5l-3 -1.5q-4 -2 -7 -5t-6 -8q-3 -4 -4.5 -11t-1.5 -16v0v0v-1v0v0v0v0v0v-1v0v0v0l-65 2q-1 26 6 47t22 34q15 14 31.5 21t34.5 8h0.5h1.5h1.5h1.5h3.5h2.5h2h2q0 -1 1 -1h2q5 -1 11 -2.5t12 -3.5t14.5 -5t18.5 -8q14 -7 23 -11t14 -6q5 -1 9.5 -2.5
t8.5 -1.5h0.5h1.5h1.5h1.5q8 0 13.5 2t9.5 6q5 5 8 13t4 21v2v0z" />
    <glyph glyph-name="caron" unicode="&#x2c7;" horiz-adv-x="333" 
d="M165 645l56 83h100l-106 -137h-93l-110 137h100l53 -83v0v0z" />
    <glyph glyph-name="macron" unicode="&#x2c9;" horiz-adv-x="333" 
d="M14 624v73h305v-73h-305v0v0z" />
    <glyph glyph-name="breve" unicode="&#x2d8;" horiz-adv-x="333" 
d="M251 722h60q-1 -10 -3 -20t-5 -21t-9.5 -22.5t-17.5 -22.5q-7 -7 -15 -13t-16 -11q-9 -4 -17.5 -7.5t-16.5 -5.5q-3 -1 -6 -1.5t-5 -1.5q-3 -1 -6 -1.5t-6 -0.5q-6 -1 -11 -1h-10h-10.5t-10.5 1q-6 0 -11.5 1.5t-10.5 2.5q-13 3 -26 9t-25 14t-21.5 20t-16.5 27
q-4 8 -6 15t-3 14l-2 12t-2 11l60 2q0 -4 1 -7.5t2 -7.5q1 -2 1.5 -4t1.5 -4q1 -3 2 -5l2 -4q4 -7 10 -13t14 -12t20 -8.5t28 -2.5q22 0 37 4t24 13q8 9 14 19t10 20v1.5v1.5v0.5v1.5v1.5t1 1.5l0.5 0.5t0.5 1.5v2v0z" />
    <glyph glyph-name="dotaccent" unicode="&#x2d9;" horiz-adv-x="333" 
d="M121 611v100h90v-100h-90v0v0z" />
    <glyph glyph-name="ring" unicode="&#x2da;" horiz-adv-x="333" 
d="M166 752q18 -2 34 -8.5t29 -19.5t19.5 -29t6.5 -34q0 -19 -6.5 -34.5t-19.5 -28.5t-29 -19.5t-34 -6.5q-19 0 -34.5 6.5t-27.5 19.5q-13 13 -19 28.5t-6 34.5q0 18 6 34t19 29q12 13 27.5 19.5t34.5 6.5v2v0zM115 664q0 -14 4 -23.5t12 -17.5q8 -7 17 -11t19 -4
q11 0 20.5 4t16.5 11q8 8 11.5 17.5t3.5 20.5t-3.5 20t-11.5 17q-7 8 -16.5 12t-20.5 4t-20 -4t-17 -12q-7 -8 -11 -17t-4 -19v2v0z" />
    <glyph glyph-name="ogonek" unicode="&#x2db;" horiz-adv-x="333" 
d="M109 12h61q-7 -17 -11 -30.5t-6 -24.5q-1 -11 -1.5 -17.5t-0.5 -8.5q0 -16 4.5 -29.5t14.5 -23.5q10 -11 22.5 -16t28.5 -5q2 0 9 0.5t18 2.5q11 1 25 6.5t30 13.5v-58q-3 -2 -6.5 -3.5t-7.5 -3.5q-3 -1 -6.5 -3t-7.5 -3q-4 -2 -8 -3t-7 -2q-4 -2 -8 -3l-8 -2
q-3 -1 -6.5 -1.5t-6.5 -1.5q-3 0 -6 -0.5t-6 -1.5q-6 -1 -12 -1.5t-11 -0.5q-22 0 -40.5 7t-34.5 21q-16 13 -24 33.5t-8 46.5q0 8 1 18.5t2 23.5q2 13 6 30t11 38v2v0z" />
    <glyph glyph-name="circumflex" unicode="&#x2dc;" horiz-adv-x="333" 
d="M168 674l-56 -83h-100l106 137h93l110 -137h-100l-53 83v0v0z" />
    <glyph glyph-name="Gamma" unicode="&#x393;" 
 />
    <glyph glyph-name="Theta" unicode="&#x398;" 
 />
    <glyph glyph-name="summation" unicode="&#x3a3;" 
 />
    <glyph glyph-name="Phi" unicode="&#x3a6;" 
 />
    <glyph glyph-name="Omega" unicode="&#x3a9;" 
 />
    <glyph glyph-name="alpha" unicode="&#x3b1;" 
 />
    <glyph glyph-name="delta" unicode="&#x3b4;" 
 />
    <glyph glyph-name="epsilon" unicode="&#x3b5;" 
 />
    <glyph glyph-name="pi" unicode="&#x3c0;" 
 />
    <glyph glyph-name="sigma" unicode="&#x3c3;" 
 />
    <glyph glyph-name="tau" unicode="&#x3c4;" 
 />
    <glyph glyph-name="phi" unicode="&#x3c6;" 
 />
    <glyph glyph-name="glyph276" unicode="&#x2013;" horiz-adv-x="556" 
d="M-6 223v72h568v-72h-568v0v0z" />
    <glyph glyph-name="emdash" unicode="&#x2014;" horiz-adv-x="1000" 
d="M-6 223v72h1012v-72h-1012v0v0z" />
    <glyph glyph-name="underscoredbl" unicode="&#x2017;" 
 />
    <glyph glyph-name="quoteleft" unicode="&#x2018;" horiz-adv-x="222" 
d="M158 596v-102h-94v80v12.5v14.5q0 8 1.5 16t2.5 16q3 14 8.5 26.5t13.5 24.5t21.5 22.5t32.5 19.5l22 -32q-11 -6 -19.5 -12t-13.5 -14q-6 -7 -9.5 -14.5t-5.5 -15.5q-2 -6 -3.5 -12t-1.5 -12q-1 -6 -1 -10.5v-9.5l46 2v0v0z" />
    <glyph glyph-name="quoteright" unicode="&#x2019;" horiz-adv-x="222" 
d="M64 614v102h94v-80v-9v-7q-1 -4 -1 -8v-8v-8t-1 -7q0 -4 -0.5 -8t-1.5 -8q-3 -13 -9 -26.5t-14 -25.5t-21.5 -22.5t-31.5 -18.5l-22 36q11 3 19 8.5t14 12.5q5 8 9 15.5t6 15.5q1 3 1.5 6t1.5 6q1 2 1.5 5t0.5 6v6t1 5v5.5v4.5l-46 2v0v0z" />
    <glyph glyph-name="quotesinglbase" unicode="&#x201a;" 
 />
    <glyph glyph-name="quotedblleft" unicode="&#x201c;" horiz-adv-x="333" 
d="M137 596v-102h-94v80v12.5v14.5q0 8 1.5 16t2.5 16q3 14 8.5 26.5t13.5 24.5t21.5 22.5t32.5 19.5l22 -32q-11 -6 -19.5 -12t-13.5 -14q-6 -7 -9.5 -14.5t-5.5 -15.5q-2 -6 -3.5 -12t-1.5 -12q-1 -6 -1 -10.5v-9.5l46 2v0v0zM289 596v-102h-94v80v12.5v14.5q0 8 1.5 16
t2.5 16q3 14 8.5 26.5t13.5 24.5t21.5 22.5t32.5 19.5l22 -32q-11 -6 -19.5 -12t-13.5 -14q-6 -7 -9.5 -14.5t-5.5 -15.5q-2 -6 -3.5 -12t-1.5 -12q-1 -6 -1 -10.5v-9.5l46 2v0v0z" />
    <glyph glyph-name="quotedblright" unicode="&#x201d;" horiz-adv-x="333" 
d="M44 614v102h94v-80v-9v-7q-1 -4 -1 -8v-8v-8t-1 -7q0 -4 -0.5 -8t-1.5 -8q-3 -13 -9 -26.5t-14 -25.5t-21.5 -22.5t-31.5 -18.5l-22 36q11 3 19 8.5t14 12.5q5 8 9 15.5t6 15.5q1 3 1.5 6t1.5 6q1 2 1.5 5t0.5 6v6t1 5v5.5v4.5l-46 2v0v0zM196 614v102h94v-80v-9v-7
q-1 -4 -1 -8v-8v-8t-1 -7q0 -4 -0.5 -8t-1.5 -8q-3 -13 -9 -26.5t-14 -25.5t-21.5 -22.5t-31.5 -18.5l-22 36q11 3 19 8.5t14 12.5q5 8 9 15.5t6 15.5q1 3 1.5 6t1.5 6q1 2 1.5 5t0.5 6v6t1 5v5.5v4.5l-46 2v0v0z" />
    <glyph glyph-name="quotedblbase" unicode="&#x201e;" horiz-adv-x="333" 
d="M44 0v102h94v-80v-8.5v-7.5q-1 -4 -1 -7v-7q0 -8 -0.5 -15.5t-2.5 -15.5q-3 -14 -9 -26.5t-14 -24.5t-21.5 -22.5t-31.5 -19.5l-22 34q11 4 19 10t14 14q5 7 9 14.5t6 15.5q2 6 3 12l2 12v5.5t1 5.5v4.5v4.5h-46v0v0zM196 0v102h94v-80v-8.5v-7.5q-1 -4 -1 -7v-7
q0 -8 -0.5 -15.5t-2.5 -15.5q-3 -14 -9 -26.5t-14 -24.5t-21.5 -22.5t-31.5 -19.5l-22 34q11 4 19 10t14 14q5 7 9 14.5t6 15.5q2 6 3 12l2 12v5.5t1 5.5v4.5v4.5h-46v0v0z" />
    <glyph glyph-name="dagger" unicode="&#x2020;" horiz-adv-x="556" 
d="M234 -169v592h-195v78h195v198h88v-198h195v-78h-195v-592h-88v0v0z" />
    <glyph glyph-name="daggerdbl" unicode="&#x2021;" horiz-adv-x="556" 
d="M234 -169v181h-195v78h195v355h-195v78h195v183h88v-183h194v-78h-194v-355h195v-78h-195v-181h-88v0v0z" />
    <glyph glyph-name="glyph287" unicode="&#x2022;" horiz-adv-x="350" 
d="M51 350q0 25 9 46.5t27 39.5t40.5 27t47.5 9q26 0 47.5 -9t39.5 -27t27.5 -40t9.5 -48q0 -25 -9.5 -47t-27.5 -40t-39.5 -27t-47.5 -9q-25 0 -47.5 9t-40.5 27t-27 40t-9 47v2v0z" />
    <glyph glyph-name="ellipsis" unicode="&#x2026;" horiz-adv-x="1000" 
d="M117 0v100h100v-100h-100v0v0zM450 0v100h100v-100h-100v0v0zM783 0v100h100v-100h-100v0v0z" />
    <glyph glyph-name="perthousand" unicode="&#x2030;" horiz-adv-x="1000" 
d="M373 164q0 5 0.5 14t1.5 21q1 11 3 23t6 24q5 20 14.5 37t24.5 33q14 16 36.5 24t52.5 8t52 -8t37 -23q14 -15 24 -31.5t16 -34.5q4 -13 6.5 -25.5t3.5 -24.5t1.5 -21.5t0.5 -15.5v-8v-9q-1 -5 -1 -10.5v-11.5q-1 -12 -3 -24.5t-5 -25.5q-5 -19 -15 -37t-24 -34
q-15 -15 -37.5 -23t-54.5 -8q-30 0 -52 8t-36 21q-15 15 -25 32t-15 36q-4 14 -7 28t-4 27t-1 22v15v2v0zM445 160v-7v-5v-6v-6q0 -6 0.5 -12t1.5 -12q2 -15 6.5 -29t11.5 -26q8 -13 20 -19t30 -6q17 0 28 6t18 19t11.5 27t6.5 29v6t1 6v6v6v6t1 5v5.5v5.5q0 25 -3.5 47.5
t-9.5 41.5q-7 20 -20.5 29.5t-34.5 9.5q-16 0 -28 -6t-19 -17q-7 -12 -11.5 -24.5t-6.5 -26.5q-1 -7 -2 -14.5t-1 -15.5v-13.5v-11.5v2v0zM702 164q0 5 0.5 14t1.5 21q1 11 3 23t6 24q5 20 14.5 37t24.5 33q14 16 36.5 24t52.5 8t52 -8t37 -23q14 -15 24 -31.5t16 -34.5
q4 -13 6.5 -25.5t3.5 -24.5t1.5 -21.5t0.5 -15.5v-8v-9q-1 -5 -1 -10.5v-11.5q-1 -12 -3 -24.5t-5 -25.5q-5 -19 -15 -37t-24 -34q-15 -15 -37.5 -23t-54.5 -8q-30 0 -52 8t-36 21q-15 15 -25 32t-15 36q-4 14 -7 28t-4 27t-1 22v15v2v0zM774 160v-7v-5v-6v-6q0 -6 0.5 -12
t1.5 -12q2 -15 6.5 -29t11.5 -26q8 -13 20 -19t30 -6q17 0 28 6t18 19t11.5 27t6.5 29v6t1 6v6v6v6t1 5v5.5v5.5q0 25 -3.5 47.5t-9.5 41.5q-7 20 -20.5 29.5t-34.5 9.5q-16 0 -28 -6t-19 -17q-7 -12 -11.5 -24.5t-6.5 -26.5q-1 -7 -2 -14.5t-1 -15.5v-13.5v-11.5v2v0z
M157 -25l293 753h64l-292 -753h-65v0v0zM18 536q0 5 0.5 14t1.5 21q1 11 3 23t6 24q5 20 14.5 37t24.5 33q14 16 36.5 24t52.5 8t52 -8t37 -23q14 -15 24 -31.5t16 -34.5q4 -13 6.5 -25.5t3.5 -24.5t1.5 -21.5t0.5 -15.5v-8v-9q-1 -5 -1 -10.5v-11.5q-1 -12 -3 -24.5
t-5 -25.5q-5 -19 -15 -37t-24 -35q-15 -16 -37.5 -24t-54.5 -8q-30 0 -52 7.5t-36 23.5q-15 15 -25 32t-15 36q-4 14 -7 28t-4 27t-1 22v15v2v0zM90 533v-7v-5v-6v-6q0 -6 0.5 -12t1.5 -12q2 -15 6.5 -29t11.5 -26q8 -13 20 -19t30 -6q17 0 28 6t18 19t11.5 27t6.5 29v6t1 6
v6v6v6t1 5v5.5v5.5q0 25 -3.5 47.5t-9.5 41.5q-7 20 -20.5 29.5t-34.5 9.5q-16 0 -28 -6t-19 -17q-7 -12 -11.5 -24.5t-6.5 -26.5q-1 -7 -2 -14.5t-1 -15.5v-13.5v-11.5v2v0z" />
    <glyph glyph-name="guilsinglleft" unicode="&#x2039;" horiz-adv-x="333" 
d="M144 258l127 -223h-72l-155 223l155 223h72l-127 -223v0v0z" />
    <glyph glyph-name="guilsinglright" unicode="&#x203a;" horiz-adv-x="333" 
d="M189 258l-127 223h72l155 -223l-155 -223h-72l127 223v0v0z" />
    <glyph glyph-name="exclamdbl" unicode="&#x203c;" 
 />
    <glyph glyph-name="nsuperior" unicode="&#x207f;" 
 />
    <glyph glyph-name="franc" unicode="&#x20a3;" 
 />
    <glyph glyph-name="peseta" unicode="&#x20a7;" 
 />
    <glyph glyph-name="trademark" unicode="&#x2122;" horiz-adv-x="1000" 
d="M229 318v339h-129v59h325v-59h-130v-339h-66v0v0zM470 318v398h98l99 -318h2l96 318h96v-398h-61v334h-2l-100 -334h-60l-105 339h-2v-339h-61v0v0z" />
    <glyph glyph-name="arrowleft" unicode="&#x2190;" 
 />
    <glyph glyph-name="arrowup" unicode="&#x2191;" 
 />
    <glyph glyph-name="arrowright" unicode="&#x2192;" horiz-adv-x="500" 
 />
    <glyph glyph-name="arrowdown" unicode="&#x2193;" 
 />
    <glyph glyph-name="arrowboth" unicode="&#x2194;" 
 />
    <glyph glyph-name="arrowupdn" unicode="&#x2195;" 
 />
    <glyph glyph-name="arrowupdnbase" unicode="&#x21a8;" 
 />
    <glyph glyph-name="partialdiff" unicode="&#x2202;" 
 />
    <glyph glyph-name="Delta" unicode="&#x2206;" 
 />
    <glyph glyph-name="product" unicode="&#x220f;" 
 />
    <glyph glyph-name="minus" unicode="&#x2212;" 
 />
    <glyph glyph-name="fraction" unicode="&#x2215;" horiz-adv-x="167" 
d="M-222 -25l539 757h76l-538 -757h-77v0v0z" />
    <glyph glyph-name="periodcentered" unicode="&#x2219;" 
d="M89 302v100h100v-100h-100v0v0z" />
    <glyph glyph-name="radical" unicode="&#x221a;" 
 />
    <glyph glyph-name="infinity" unicode="&#x221e;" 
 />
    <glyph glyph-name="orthogonal" unicode="&#x221f;" 
 />
    <glyph glyph-name="intersection" unicode="&#x2229;" 
 />
    <glyph glyph-name="integral" unicode="&#x222b;" 
 />
    <glyph glyph-name="approxequal" unicode="&#x2248;" 
 />
    <glyph glyph-name="notequal" unicode="&#x2260;" 
 />
    <glyph glyph-name="equivalence" unicode="&#x2261;" 
 />
    <glyph glyph-name="lessequal" unicode="&#x2264;" 
 />
    <glyph glyph-name="greaterequal" unicode="&#x2265;" 
 />
    <glyph glyph-name="house" unicode="&#x2302;" 
 />
    <glyph glyph-name="revlogicalnot" unicode="&#x2310;" 
 />
    <glyph glyph-name="integraltp" unicode="&#x2320;" 
 />
    <glyph glyph-name="integralbt" unicode="&#x2321;" 
 />
    <glyph glyph-name="2500" unicode="&#x2500;" 
 />
    <glyph glyph-name="2502" unicode="&#x2502;" 
 />
    <glyph glyph-name="250c" unicode="&#x250c;" 
 />
    <glyph glyph-name="2510" unicode="&#x2510;" 
 />
    <glyph glyph-name="2514" unicode="&#x2514;" 
 />
    <glyph glyph-name="2518" unicode="&#x2518;" 
 />
    <glyph glyph-name="251c" unicode="&#x251c;" 
 />
    <glyph glyph-name="2524" unicode="&#x2524;" 
 />
    <glyph glyph-name="252c" unicode="&#x252c;" 
 />
    <glyph glyph-name="2534" unicode="&#x2534;" 
 />
    <glyph glyph-name="253c" unicode="&#x253c;" 
 />
    <glyph glyph-name="2550" unicode="&#x2550;" 
 />
    <glyph glyph-name="2551" unicode="&#x2551;" 
 />
    <glyph glyph-name="2552" unicode="&#x2552;" 
 />
    <glyph glyph-name="2553" unicode="&#x2553;" 
 />
    <glyph glyph-name="2554" unicode="&#x2554;" 
 />
    <glyph glyph-name="2555" unicode="&#x2555;" 
 />
    <glyph glyph-name="2556" unicode="&#x2556;" 
 />
    <glyph glyph-name="2557" unicode="&#x2557;" 
 />
    <glyph glyph-name="2558" unicode="&#x2558;" 
 />
    <glyph glyph-name="2559" unicode="&#x2559;" 
 />
    <glyph glyph-name="255a" unicode="&#x255a;" 
 />
    <glyph glyph-name="255b" unicode="&#x255b;" 
 />
    <glyph glyph-name="255c" unicode="&#x255c;" 
 />
    <glyph glyph-name="255d" unicode="&#x255d;" 
 />
    <glyph glyph-name="255e" unicode="&#x255e;" 
 />
    <glyph glyph-name="255f" unicode="&#x255f;" 
 />
    <glyph glyph-name="2560" unicode="&#x2560;" 
 />
    <glyph glyph-name="2561" unicode="&#x2561;" 
 />
    <glyph glyph-name="2562" unicode="&#x2562;" 
 />
    <glyph glyph-name="2563" unicode="&#x2563;" 
 />
    <glyph glyph-name="2564" unicode="&#x2564;" 
 />
    <glyph glyph-name="2565" unicode="&#x2565;" 
 />
    <glyph glyph-name="2566" unicode="&#x2566;" 
 />
    <glyph glyph-name="2567" unicode="&#x2567;" 
 />
    <glyph glyph-name="2568" unicode="&#x2568;" 
 />
    <glyph glyph-name="2569" unicode="&#x2569;" 
 />
    <glyph glyph-name="256a" unicode="&#x256a;" 
 />
    <glyph glyph-name="256b" unicode="&#x256b;" 
 />
    <glyph glyph-name="256c" unicode="&#x256c;" 
 />
    <glyph glyph-name="upblock" unicode="&#x2580;" 
 />
    <glyph glyph-name="dnblock" unicode="&#x2584;" 
 />
    <glyph glyph-name="block" unicode="&#x2588;" 
 />
    <glyph glyph-name="lfblock" unicode="&#x258c;" 
 />
    <glyph glyph-name="rtblock" unicode="&#x2590;" 
 />
    <glyph glyph-name="ltshade" unicode="&#x2591;" 
 />
    <glyph glyph-name="shade" unicode="&#x2592;" 
 />
    <glyph glyph-name="dkshade" unicode="&#x2593;" 
 />
    <glyph glyph-name="filledbox" unicode="&#x25a0;" horiz-adv-x="500" 
 />
    <glyph glyph-name="filledrect" unicode="&#x25ac;" 
 />
    <glyph glyph-name="triagup" unicode="&#x25b2;" 
 />
    <glyph glyph-name="triagrt" unicode="&#x25ba;" 
 />
    <glyph glyph-name="triagdn" unicode="&#x25bc;" 
 />
    <glyph glyph-name="triaglf" unicode="&#x25c4;" 
 />
    <glyph glyph-name="lozenge" unicode="&#x25ca;" 
 />
    <glyph glyph-name="circle" unicode="&#x25cb;" 
 />
    <glyph glyph-name="invbullet" unicode="&#x25d8;" 
 />
    <glyph glyph-name="invcircle" unicode="&#x25d9;" 
 />
    <glyph glyph-name="smileface" unicode="&#x263a;" 
 />
    <glyph glyph-name="invsmileface" unicode="&#x263b;" 
 />
    <glyph glyph-name="sun" unicode="&#x263c;" 
 />
    <glyph glyph-name="female" unicode="&#x2640;" 
 />
    <glyph glyph-name="male" unicode="&#x2642;" 
 />
    <glyph glyph-name="spade" unicode="&#x2660;" 
 />
    <glyph glyph-name="club" unicode="&#x2663;" 
 />
    <glyph glyph-name="heart" unicode="&#x2665;" 
 />
    <glyph glyph-name="diamond" unicode="&#x2666;" 
 />
    <glyph glyph-name="musicalnote" unicode="&#x266a;" 
 />
    <glyph glyph-name="musicalnotedbl" unicode="&#x266b;" 
 />
    <glyph glyph-name="apple" unicode="&#xf000;" 
 />
    <glyph glyph-name="fi" unicode="&#xf001;" horiz-adv-x="500" 
d="M89 0v450h-78v68h78v51v12t1 18q0 10 2 20.5t6 21.5q5 16 15 30.5t24 27.5q14 14 37 20.5t54 6.5h3.5h6.5q3 -1 8 -1h11q12 -1 25.5 -3t28.5 -5q0 -1 0.5 -1.5t1.5 -0.5h2h2l-14 -73l-1.5 -1.5l-0.5 -0.5h-1.5h-1.5t-2 0.5t-2 1.5q-4 0 -8.5 0.5t-9.5 1.5h-5.5t-5.5 1
h-6.5h-6.5q-20 0 -34.5 -4.5t-23.5 -12.5t-13 -22.5t-4 -35.5v-52h101v-68h-101v-450h-88v0v0zM344 0v518h88v-518h-88v0v0zM344 616v100h88v-100h-88v0v0z" />
    <glyph glyph-name="fl" unicode="&#xf002;" horiz-adv-x="500" 
d="M89 0v450h-78v68h78v51v12t1 18q0 10 2 20.5t6 21.5q5 16 15 30.5t24 27.5q14 14 37 20.5t54 6.5h3.5h6.5q3 -1 8 -1h11q12 -1 25.5 -3t28.5 -5q0 -1 0.5 -1.5t1.5 -0.5h2h2l-14 -73l-1.5 -1.5l-0.5 -0.5h-1.5h-1.5t-2 0.5t-2 1.5q-4 0 -9 0.5t-10 1.5h-5.5t-5.5 1h-6.5
h-7.5q-18 0 -32 -4t-23 -12q-9 -7 -13.5 -21.5t-4.5 -34.5v-55h101v-68h-101v-450h-88v0v0zM343 0v716h88v-716h-88v0v0z" />
    <glyph glyph-name="degree" horiz-adv-x="333" 
d="M166 752q18 -2 34 -8.5t29 -19.5t19.5 -29t6.5 -34q0 -19 -6.5 -34.5t-19.5 -28.5t-29 -19.5t-34 -6.5q-19 0 -34.5 6.5t-27.5 19.5q-13 13 -19 28.5t-6 34.5q0 18 6 34t19 29q12 13 27.5 19.5t34.5 6.5v2v0zM115 664q0 -14 4 -23.5t12 -17.5q8 -7 17 -11t19 -4
q11 0 20.5 4t16.5 11q8 8 11.5 17.5t3.5 20.5t-3.5 20t-11.5 17q-7 8 -16.5 12t-20.5 4t-20 -4t-17 -12q-7 -8 -11 -17t-4 -19v2v0z" />
    <glyph glyph-name="bullet" horiz-adv-x="350" 
d="M51 350q0 25 9 46.5t27 39.5t40.5 27t47.5 9q26 0 47.5 -9t39.5 -27t27.5 -40t9.5 -48q0 -25 -9.5 -47t-27.5 -40t-39.5 -27t-47.5 -9q-25 0 -47.5 9t-40.5 27t-27 40t-9 47v2v0z" />
    <glyph glyph-name="endash" horiz-adv-x="556" 
d="M-6 223v72h568v-72h-568v0v0z" />
    </font>
</defs>
</svg>
